↑↓Torrent.by
Поиск
Логин: Регистрация
Пароль: Восстановить пароль
Загрузка...

Мэнди / Mandy (2018) BDRip 1080p от селезень | iTunes

Скачать mendi-mandy-2018-bdrip-1080p-ot-selezen-itunes.torrent
U Магнитная ссылка Размер: 15.12 GB Раздают: 101 Качают: 89 Добавлен: 2018-11-02 10:16:59
Мэнди / Mandy (2018) BDRip 1080p от селезень | iTunes

Название: Мэнди
Оригинальное название: Mandy
Год выхода: 2018
Жанр: Ужасы, боевик, триллер
Режиссер: Панос Косматос
В ролях: Николас Кейдж, Андреа Райзборо, Лайнас Роуч, Нед Деннехи, Олуэн Фуэр, Ричард Брэйк, Билл Дьюк, Лайн Пийе, Клеман Баронне, Алексис Жюльмон

О фильме: 1983 год. Дровосек Ред с подругой Мэнди мирно живёт в живописном лесу рядом с озером. Ничего удивительного, но в лесу поселилось зло — религиозный культ в компании с адской байкерской бандой. Как не вовремя пошла Мэнди прогуляться в лесу, где и приглянулась зловещему лидеру культа Иеремие. Тот приказывает байкерам похитить девушку, накачивает её наркотиками и предаёт ритуальному сожжению. И не оставляет выбора дровосеку Реду, кроме как встать на тропу мести.

Страна: США, Бельгия
Студия: SpectreVision, Umedia, Legion M
Продолжительность: 02:01:02
Перевод: Дублированный | iTunes

Качество: BDRip 1080p
Видео: MPEG-4 AVC, 1920x804, 16.0 Mbit/s, 23.976 fps
Звук:
Аудио #01: 48 kHz, AC3, 5.1, 384 Kbps | iTunes | RUS |
Аудио #02: 48 kHz, DTS, 5.1, 1510 Kbps | Оригинал |  ENG |
Субтитры: Русские (2 x full), английские (SDH)

Релиз:


[+] MI
General
Unique ID                   : 164851400396773792134201336039078573790 (0x7C05398F1A6BC65D7A3AF681F41B36DE)
Complete name               : D:Video111Mandy.2018.BDRip.1080p.selezen.mkv
Format                      : Matroska
Format version              : Version 4
File size                   : 15.1 GiB
Duration                    : 2 h 1 min
Overall bit rate            : 17.9 Mb/s
Movie name                  : Mandy 2018 1080p from селезень
Encoded date                : UTC 2018-11-02 03:36:30
Writing application         : mkvmerge v28.0.0 ('Voice In My Head') 64-bit
Writing library             : libebml v1.3.6 + libmatroska v1.4.9

Video
ID                          : 1
Format                      : AVC
Format/Info                 : Advanced Video Codec
Format profile              : High@L4.1
Format settings             : CABAC / 5 Ref Frames
Format settings, CABAC      : Yes
Format settings, ReFrames   : 5 frames
Codec ID                    : V_MPEG4/ISO/AVC
Duration                    : 2 h 1 min
Bit rate                    : 16.0 Mb/s
Width                       : 1 920 pixels
Height                      : 804 pixels
Display aspect ratio        : 2.40:1
Frame rate mode             : Constant
Frame rate                  : 23.976 (24000/1001) FPS
Color space                 : YUV
Chroma subsampling          : 4:2:0
Bit depth                   : 8 bits
Scan type                   : Progressive
Bits/(Pixel*Frame)          : 0.432
Stream size                 : 13.5 GiB (89%)
Writing library             : x264 core 148 r2705+45 bdacf7a 7mod [8-bit@all X86_64]
Encoding settings           : cabac=1 / ref=5 / deblock=1:-3:-3 / analyse=0x3:0x113 / me=umh / subme=11 / psy=1 / fade_compensate=0.00 / psy_rd=1.00:0.05 / mixed_ref=1 / me_range=32 / chroma_me=1 / trellis=2 / 8x8dct=1 / cqm=0 / deadzone=21,11 / fast_pskip=0 / chroma_qp_offset=-2 / threads=16 / lookahead_threads=2 / sliced_threads=0 / nr=0 / decimate=1 / interlaced=0 / bluray_compat=0 / constrained_intra=0 / fgo=0 / bframes=8 / b_pyramid=2 / b_adapt=2 / b_bias=0 / direct=3 / weightb=1 / open_gop=0 / weightp=2 / keyint=250 / keyint_min=23 / scenecut=40 / intra_refresh=0 / rc_lookahead=40 / rc=crf / mbtree=0 / crf=16.6000 / qcomp=0.60 / qpmin=0:0:0 / qpmax=69:69:69 / qpstep=4 / vbv_maxrate=50000 / vbv_bufsize=40000 / crf_max=0.0 / nal_hrd=none / filler=0 / ip_ratio=1.40 / pb_ratio=1.30 / aq=4:0.90 / aq-sensitivity=10.00 / aq-factor=1.00:1.00:1.00 / aq2=0 / aq3=0
Language                    : English
Default                     : Yes
Forced                      : No

Audio #1
ID                          : 2
Format                      : AC-3
Format/Info                 : Audio Coding 3
Commercial name             : Dolby Digital
Codec ID                    : A_AC3
Duration                    : 2 h 1 min
Bit rate mode               : Constant
Bit rate                    : 384 kb/s
Channel(s)                  : 6 channels
Channel layout              : L R C LFE Ls Rs
Sampling rate               : 48.0 kHz
Frame rate                  : 31.250 FPS (1536 SPF)
Bit depth                   : 16 bits
Compression mode            : Lossy
Stream size                 : 332 MiB (2%)
Title                       : iTunes
Language                    : Russian
Service kind                : Complete Main
Default                     : Yes
Forced                      : Yes

Audio #2
ID                          : 3
Format                      : DTS
Format/Info                 : Digital Theater Systems
Codec ID                    : A_DTS
Duration                    : 2 h 1 min
Bit rate mode               : Constant
Bit rate                    : 1 509 kb/s
Channel(s)                  : 6 channels
Channel layout              : C L R Ls Rs LFE
Sampling rate               : 48.0 kHz
Frame rate                  : 93.750 FPS (512 SPF)
Bit depth                   : 24 bits
Compression mode            : Lossy
Stream size                 : 1.28 GiB (8%)
Title                       : Original
Language                    : English
Default                     : No
Forced                      : No

Text #1
ID                          : 4
Format                      : UTF-8
Codec ID                    : S_TEXT/UTF8
Codec ID/Info               : UTF-8 Plain Text
Duration                    : 1 h 50 min
Bit rate                    : 23 b/s
Count of elements           : 479
Stream size                 : 19.2 KiB (0%)
Title                       : Full v.1
Language                    : Russian
Default                     : No
Forced                      : No

Text #2
ID                          : 5
Format                      : UTF-8
Codec ID                    : S_TEXT/UTF8
Codec ID/Info               : UTF-8 Plain Text
Duration                    : 1 h 56 min
Bit rate                    : 26 b/s
Count of elements           : 485
Stream size                 : 22.5 KiB (0%)
Title                       : Full v.2
Language                    : Russian
Default                     : No
Forced                      : No

Text #3
ID                          : 6
Format                      : UTF-8
Codec ID                    : S_TEXT/UTF8
Codec ID/Info               : UTF-8 Plain Text
Duration                    : 1 h 59 min
Bit rate                    : 18 b/s
Count of elements           : 699
Stream size                 : 16.3 KiB (0%)
Title                       : SDH
Language                    : English
Default                     : No
Forced                      : No

Menu
00:00:00.000                : en:00:00:00.000
00:11:14.799                : en:00:11:14.799
00:21:25.826                : en:00:21:25.826
00:34:30.235                : en:00:34:30.235
00:51:18.158                : en:00:51:18.158
01:04:38.500                : en:01:04:38.500
01:08:57.342                : en:01:08:57.342
01:16:49.647                : en:01:16:49.647
01:26:33.980                : en:01:26:33.980
01:36:26.656                : en:01:36:26.656
01:47:46.085                : en:01:47:46.085
01:57:05.018                : en:01:57:05.018



Скриншоты:
[+] Всего файлов в раздаче - 1:
Mandy.2018.BDRip.1080p.selezen.mkv15.12 GB

Текущая раздача:
ДатаКомментарии    РазмерПиры
2018-11-02 U Мэнди / Mandy (2018) BDRip 1080p от селезень | iTunes 15.12 GB ↑ 101 ↓ 89

Показать еще раздачи по запросу мэнди:
2018-11-02 U Мэнди / Mandy (2018) BDRip от MegaPeer | iTunes 2.13 GB ↑ 93 ↓ 90
2018-11-02 U Мэнди / Mandy (2018) BDRip 720p от TeamHD | iTunes 7.64 GB ↑ 364 ↓ 244
2018-11-02 U Мэнди / Mandy (2018) BDRip от MegaPeer | iTunes 745.66 MB ↑ 138 ↓ 40
2018-11-02 U Мэнди / Mandy (2018) BDRip от ExKinoRay | iTunes 1.46 GB ↑ 172 ↓ 44
2018-11-02 U Мэнди / Mandy (2018) BDRip-AVC от HELLYWOOD | iTunes 2.86 GB ↑ 115 ↓ 69
2018-11-02 U Мэнди / Mandy (2018) BDRip от MegaPeer | iTunes 1.46 GB ↑ 79 ↓ 30
2018-10-20 U Мэнди / Mandy (2018) BDRip 1080p | HDrezka Studio 8.57 GB ↑ 144 ↓ 40

Отзывы
Зарегистрируйтесь чтобы добавить комментарий.
Обратная связь
Copyleft ©