↑↓Torrent.by
Поиск
Логин: Регистрация
Пароль: Восстановить пароль
Загрузка...

Ворона [01-12 из 12] (2018) WEBRip от GeneralFilm

Скачать vorona-01-12-iz-2018-webrip-ot-generalfilm.torrent
U Магнитная ссылка Размер: 6.53 GB Раздают: 154 Качают: 278 Добавлен: 2018-11-03 09:05:34
Ворона [01-12 из 12] (2018) WEBRip от GeneralFilm

Оригинальное название: Ворона
Год выпуска: 2018
Жанр:  Детектив, криминал, триллер
Режиссер: Ольга Ангелова, Евгений Сосницкий
В ролях: Елизавета Боярская, Анатолий Белый, Марина Игнатова, Виталий Коваленко, Артём Карасёв, Сергей Колос, Василий Щипицын, Антон Сычёв, Диана Дезмари, Елена Мартыненко, Владимир Селезнёв (II), Юрий Ковалёв, Владимир Колганов, Дмитрий Сутырин, Владимир Артёмов, Алиса Горшкова, Светлана Бакулина

О фильме: Анна Воронцова, или, как прозвали ее коллеги в следственном комитете, Ворона, в течение трех недель отказывается возбуждать дело о пропаже известного богемного фотографа. Этот человек уже не в первый раз пропадает на несколько месяцев и всегда возвращается. Однако на этот раз дело принимает неожиданный оборот, и фотограф погибает. Чувствуя вину за произошедшее, Воронцова ставит своей задачей во чтобы то ни стало разобраться в этой истории.

Страна: Россия
Студия: «Мармот-фильм»
Продолжительность: 12 x ~ 00:50:00
Перевод: Не требуется
Субтитры: нет

Файл
Формат: avi
Качество: WEBRip
Видео: XviD build 73, 720x352 (2.045), 25.000 fps, ~ 1400 Kbps (~ 0.223 bit/pixel)
Звук: 48.0 kHz, AC3, 2/0 ch, 192 kbps

Релиз:


[+] MediaInfo
General
Complete name               : D:RazdachiVorona.2018.XviD.WEB-Rip.GeneralFilmVorona.e01.avi
Format                      : AVI
Format/Info                 : Audio Video Interleave
File size                   : 557 MiB
Duration                    : 48 min 12 s
Overall bit rate            : 1 616 kb/s
Writing application         : VirtualDubMod 1.5.10.3 | www.virtualdub-fr.org || (build 2550/release)
Writing library             : VirtualDubMod build 2550/release

Video
ID                          : 0
Format                      : MPEG-4 Visual
Format profile              : Advanced Simple@L5
Format settings, BVOP       : 1
Format settings, QPel       : No
Format settings, GMC        : No warppoints
Format settings, Matrix     : Custom
Codec ID                    : XVID
Codec ID/Hint               : XviD
Duration                    : 48 min 12 s
Bit rate                    : 1 414 kb/s
Width                       : 720 pixels
Height                      : 352 pixels
Display aspect ratio        : 2.045
Frame rate                  : 25.000 FPS
Color space                 : YUV
Chroma subsampling          : 4:2:0
Bit depth                   : 8 bits
Scan type                   : Progressive
Compression mode            : Lossy
Bits/(Pixel*Frame)          : 0.223
Stream size                 : 487 MiB (88%)
Writing library             : XviD 73

Audio
ID                          : 1
Format                      : AC-3
Format/Info                 : Audio Coding 3
Format settings, Endianness : Big
Codec ID                    : 2000
Duration                    : 48 min 12 s
Bit rate mode               : Constant
Bit rate                    : 192 kb/s
Channel(s)                  : 2 channels
Channel positions           : Front: L R
Sampling rate               : 48.0 kHz
Frame rate                  : 31.250 FPS (1536 SPF)
Bit depth                   : 16 bits
Compression mode            : Lossy
Stream size                 : 66.2 MiB (12%)
Alignment                   : Split accross interleaves
Interleave, duration        : 40  ms (1.00 video frame)
Interleave, preload duratio : 500  ms
Service kind                : Complete Main



Скриншоты:
[+] Всего файлов в раздаче - 12:
Vorona.e01.avi557.01 MB
Vorona.e02.avi556.91 MB
Vorona.e03.avi557.33 MB
Vorona.e04.avi557.11 MB
Vorona.e05.avi556.98 MB
Vorona.e06.avi557.02 MB
Vorona.e07.avi557.07 MB
Vorona.e08.avi557.25 MB
Vorona.e09.avi557.14 MB
Vorona.e10.avi557.25 MB
Vorona.e11.avi557.27 MB
Vorona.e12.avi557.24 MB

Текущая раздача:
ДатаКомментарии    РазмерПиры
2018-11-03 U Ворона [01-12 из 12] (2018) WEBRip от GeneralFilm 6.53 GB ↑ 154 ↓ 278

Показать еще раздачи по запросу ворона:
2018-11-04 U Ворона [01-12 из 12] (2018) WEBRip от Generalfilm | КПК 2.17 GB ↑ 74 ↓ 75
2018-11-03 U Ворона [01-12 из 12] (2018) WEBRip-AVC от Files-x 8.95 GB ↑ 159 ↓ 163
2018-11-03 U Ворона [01-12 из 12] (2018) WEBRip 1080p от MediaClub 25.06 GB ↑ 147 ↓ 180
2018-11-03 U Ворона [01-12 из 12] (2018) WEBRip от Files-x 6.94 GB ↑ 150 ↓ 204
2018-11-03 U Ворона [01-12 из 12] (2018) WEBRip 720p от GeneralFilm 15.07 GB ↑ 97 ↓ 156
2018-11-02 U Ворона [01х01-12 из 12] (2018) SATRip-AVC 7.65 GB ↑ 3 ↓ 6
2018-11-02 U Ворона [01-12 из 12] (2018) SATRip 7.64 GB ↑ 204 ↓ 1696

Отзывы
Зарегистрируйтесь чтобы добавить комментарий.
Обратная связь
Copyleft ©