↑↓Torrent.by
Поиск
Логин: Регистрация
Пароль: Восстановить пароль
Загрузка...

Айвенго / Ivanhoe (1982) WEB-DL 1080p | P2

Скачать ayvengo-ivanhoe-1982-web-dl-1080p-p2.torrent
U Магнитная ссылка Размер: 13.71 GB Раздают: 81 Качают: 58 Добавлен: 2018-11-03 09:06:01
Айвенго / Ivanhoe (1982) WEB-DL 1080p | P2

Название: Айвенго
Оригинальное название: Ivanhoe
Год выпуска: 1982
Выпущено: США, Rosemont Productions, Columbia Pictures Television
Жанр:  Исторический, приключения, экранизация
Режиссер: Даглас Кэмфилд
В ролях: Джеймс Мэйсон, Энтони Эндрюс, Сэм Нилл, Майкл Хордерн, Оливия Хасси, Лизетт Энтони, Джулиан Гловер, Джордж Иннес, Рональд Пикап, Джон Рис-Дэвис

О фильме: Английский рыцарь Айвенго был лишен из — за происков врагов всего — доброго имени, наследства и возможности соединиться с дамой своего сердца. НО никто не смог отнять у него честь. А значит, кому — то придется дорого заплатить за причиненное ему зло. С помощью верного меча, горячего сердца и при поддержке новоприобретенных друзей — благородного разбойника Робин Гуда и таинственного, могучего Черного рыцаря. Айвергого начинает свой крестовый поход против обидчиков — мрачного рыцаря Бриана Де Буагильбера иего приспешников, в плену у которых томится любовь героя. Экранизация романа Вальтера Скотта.

Продолжительность: 02:26:06
Перевод: Профессиональный двухголосый
Субтитры: Английские

Файл
Качество: WEB-DL 1080p
Видео: MPEG-4 AVC, 13,1 Мбит/сек, 1440x1080, 23,976 кадра/сек
Аудио #1: AC3, 2 ch, 192 Кбит/сек | Русский, профессиональный (двухголосый закадровый)
Аудио #2: EAC3, 2 ch, 224 Кбит/сек | Английский, оригинал

Сборка:


[+] Инфо-файл
Общее
Уникальный идентификатор                 : 178988937979701862028801265992307242006 (0x86A803FA3A39AA7F933618CFFCC2F416)
Полное имя                               : Айвенго.1982.WEB-DL.1080p.mkv
Формат                                   : Matroska
Версия формата                           : Version 2
Размер файла                             : 13,7 Гбайт
Продолжительность                        : 2 ч. 22 м.
Общий поток                              : 13,8 Мбит/сек
Дата кодирования                         : UTC 2018-11-02 13:36:00
Программа кодирования                    : mkvmerge v5.8.0 ('No Sleep / Pillow') built on Sep  2 2012 15:37:04
Библиотека кодирования                   : libebml v1.2.3 + libmatroska v1.3.0

Видео
Идентификатор                            : 1
Формат                                   : AVC
Формат/Информация                        : Advanced Video Codec
Профиль формата                          : High@L4
Настройки формата                        : CABAC / 4 Ref Frames
Параметр CABAC формата                   : Да
Параметр RefFrames формата               : 4 кадра
Идентификатор кодека                     : V_MPEG4/ISO/AVC
Продолжительность                        : 2 ч. 22 м.
Битрейт                                  : 13,1 Мбит/сек
Ширина                                   : 1440 пикселей
Высота                                   : 1080 пикселей
Соотношение сторон                       : 4:3
Режим частоты кадров                     : Постоянный
Частота кадров                           : 23,976 (24000/1001) кадра/сек
Цветовое пространство                    : YUV
Субдискретизация насыщенности            : 4:2:0
Битовая глубина                          : 8 бит
Тип развёртки                            : Прогрессивная
Бит/(Пиксели*Кадры)                      : 0.352
Размер потока                            : 13,0 Гбайт (95%)
Язык                                     : English
По умолчанию                             : Да
Принудительно                            : Нет
Цветовой диапазон                        : Limited
Основные цвета                           : BT.709
Характеристики трансфера                 : BT.709
Коэффициенты матрицы                     : BT.709

Аудио #1
Идентификатор                            : 2
Формат                                   : AC-3
Формат/Информация                        : Audio Coding 3
Идентификатор кодека                     : A_AC3
Продолжительность                        : 2 ч. 22 м.
Вид битрейта                             : Постоянный
Битрейт                                  : 192 Кбит/сек
Каналы                                   : 2 канала
Расположение каналов                     : Front: L R
Частота                                  : 48,0 КГц
Частота кадров                           : 31,250 кадров/сек (1536 SPF)
Битовая глубина                          : 16 бит
Метод сжатия                             : С потерями
Размер потока                            : 195 Мбайт (1%)
Заголовок                                : DVO
Язык                                     : Russian
По умолчанию                             : Да
Принудительно                            : Нет

Аудио #2
Идентификатор                            : 3
Формат                                   : E-AC-3
Формат/Информация                        : Enhanced Audio Coding 3
Идентификатор кодека                     : A_EAC3
Продолжительность                        : 2 ч. 22 м.
Вид битрейта                             : Постоянный
Битрейт                                  : 224 Кбит/сек
Каналы                                   : 2 канала
Расположение каналов                     : Front: L R
Частота                                  : 48,0 КГц
Частота кадров                           : 187,500 кадров/сек (256 SPF)
Метод сжатия                             : С потерями
Размер потока                            : 228 Мбайт (2%)
Заголовок                                : Original
Язык                                     : English
По умолчанию                             : Нет
Принудительно                            : Нет

Текст
Идентификатор                            : 4
Формат                                   : UTF-8
Идентификатор кодека                     : S_TEXT/UTF8
Идентификатор кодека/Информация          : UTF-8 Plain Text
Заголовок                                : SDH
Язык                                     : English
По умолчанию                             : Нет
Принудительно                            : Нет



[+] Дополнительная информация
• Исходник видео WEB-DL Amazon.



Скриншоты:
[+] Всего файлов в раздаче - 1:
Айвенго.1982.WEB-DL.1080p.mkv13.71 GB

Текущая раздача:
ДатаКомментарии    РазмерПиры
2018-11-03 U Айвенго / Ivanhoe (1982) WEB-DL 1080p | P2 13.71 GB ↑ 81 ↓ 58

Похожие раздачи по запросу - айвенго:
2018-11-11 U Айвенго / Ivanhoe [S01] (1997) DVDRip | P 4.10 GB ↑ 101 ↓ 60

Отзывы
Зарегистрируйтесь чтобы добавить комментарий.
Обратная связь
Copyleft ©