↑↓Torrent.by
Поиск
Логин: Регистрация
Пароль: Восстановить пароль
Загрузка...

Головар (2018) WEB-DLRip от Portablius

Скачать golovar-2018-web-dlrip-ot-portablius.torrent
U Магнитная ссылка Размер: 745.01 MB Раздают: 83 Качают: 16 Добавлен: 2018-11-03 09:06:59
Головар (2018) WEB-DLRip от Portablius

Название: Головар
Год выхода: 2018
Жанр: Драма, криминал
Режиссер: Юрий Ботоев
В ролях: Владимир Банчиков, Светлана Полянская, Владимир Барташевич, Артур Шувалов, Владимир Срабионов, Рина Жеребко, Алексей Туробов, Игорь Озеров, Владислав Самарин, Елена Ершова

О фильме: Налаженная жизнь, успешный нефритовый бизнес — все это было, пока главный герой не попал в ситуацию, которая поглотила его и всю его семью в трагические обстоятельства. Человек, который, казалось бы, может купить все, что угодно, в том, числе власть, оказывается бессилен перед чередой случайных событий. Потеряв, близкого человека, он решается на отчаянный шаг.

Страна: Россия
Студия: M55
Продолжительность: 01:32:17
Перевод: Не требуется
Субтитры: Нет

Файл
Кодек: XviD
Качество: WEB-DLRip
Видео: 688x288 (2.39:1), 23.976 fps, XviD build 73 ~991 kbps avg, 0.21 bit/pixel
Звук: 44.100 kHz, MPEG Layer 3, 2 ch, ~128.00 kbps avg


[+] MediaInfo
General
Complete name               : Golovar.2018.WEB-DLRip.Portablius.avi
Format                      : AVI
Format/Info                 : Audio Video Interleave
File size                   : 745 MiB
Duration                    : 1 h 32 min
Overall bit rate            : 1 129 kb/s
Writing application         : VirtualDubMod 1.5.10.3 | www.virtualdub-fr.org || (build 2550/release)
Writing library             : VirtualDubMod build 2550/release

Video
ID                          : 0
Format                      : MPEG-4 Visual
Format profile              : Advanced Simple@L5
Format settings, BVOP       : 1
Format settings, QPel       : No
Format settings, GMC        : No warppoints
Format settings, Matrix     : Custom
Codec ID                    : XVID
Codec ID/Hint               : XviD
Duration                    : 1 h 32 min
Bit rate                    : 991 kb/s
Width                       : 688 pixels
Height                      : 288 pixels
Display aspect ratio        : 2.40:1
Frame rate                  : 23.976 (24000/1001) FPS
Color space                 : YUV
Chroma subsampling          : 4:2:0
Bit depth                   : 8 bits
Scan type                   : Progressive
Compression mode            : Lossy
Bits/(Pixel*Frame)          : 0.209
Stream size                 : 654 MiB (88%)
Writing library             : XviD 73

Audio
ID                          : 1
Format                      : MPEG Audio
Format version              : Version 1
Format profile              : Layer 3
Codec ID                    : 55
Codec ID/Hint               : MP3
Duration                    : 1 h 32 min
Bit rate mode               : Constant
Bit rate                    : 128 kb/s
Channel(s)                  : 2 channels
Sampling rate               : 44.1 kHz
Compression mode            : Lossy
Stream size                 : 84.5 MiB (11%)
Alignment                   : Split accross interleaves
Interleave, duration        : 42  ms (1.00 video frame)
Interleave, preload duratio : 500  ms
Writing library             : LAME3.99r
Encoding settings           : -m s -V 4 -q 2 -lowpass 17 -b 128




Скриншоты:
[+] Всего файлов в раздаче - 1:
Golovar.2018.WEB-DLRip.Portablius.avi745.01 MB

Текущая раздача:
ДатаКомментарии    РазмерПиры
2018-11-03 U Головар (2018) WEB-DLRip от Portablius 745.01 MB ↑ 83 ↓ 16

Похожие раздачи по запросу - головар:
2018-11-01 U Головар (2018) WEB-DLRip-AVC 1К1.78 GB ↑ 171 ↓ 66
2018-10-11 U Головар (2018) WEB-DLRip от ExKinoRay 1.37 GB ↑ 572 ↓ 205

Отзывы
Зарегистрируйтесь чтобы добавить комментарий.
Обратная связь
Copyleft ©