↑↓Torrent.by
Поиск
Логин: Регистрация
Пароль: Восстановить пароль
Загрузка...

Проклятие монахини / The Nun (2018) WEBRip 1080p | L1

Скачать proklyatie-monahini-the-nun-2018-webrip-1080p-l1.torrent
U Магнитная ссылка Размер: 2.88 GB Раздают: 305 Качают: 151 Добавлен: 2018-11-03 13:57:40
Проклятие монахини / The Nun  (2018) WEBRip 1080p | L1

Название: Проклятие монахини      
Оригинальное название: The Nun
Год выхода: 2018
Жанр: ужасы
Режиссер: Корин Харди
В ролях: Демиан Бишир, Таисса Фармига, Йонас Блоке, Бонни Ааронс, Ингрид Бису, Шарлотта Хоуп, Сандра Телес, Аугуст Матуро, Джек Фальк, Линетт Газа

Описание:Когда в уединенном монастыре в Румынии совершает самоубийство молодая монахиня, расследовать происшествие Ватикан отправляет священника с туманным прошлым и послушницу на пороге невозвратных обетов. Рискуя не только жизнями, но и верой, и даже своими душами, они сталкиваются со злобной силой, принявшей облик демонической монахини, а монастырь становится полем ужасающей битвы между живыми и проклятыми.

Страна: Австрия
Продолжительность: 01:36:16
Перевод: Любительский одноголосый (Хихикающий доктор)
субтитры: корейский хардсаб

Файл
Формат: MKV
Качество: WEBRip 1080p
Видео: 1920x800 (2.25:1), 30.000 fps, AVC (H.264), High@L4.0 ~ 4140 Кbps, bit/pixel 0.090
Аудио: 44.100 kHz, MPEG Layer 3, 2 ch, ~192.00 kbps avg rus

Трейлер

Небольшая реклама в титрах


[+] MI

General
Unique ID                                : 214321911672248567410006650306442732847 (0xA13CE61401EA763E951806FE03B2A52F)
Complete name                            : C:The.Nun.2018.1080p.Xixidok.mkv
Format                                   : Matroska
Format version                           : Version 4 / Version 2
File size                                : 2.88 GiB
Duration                                 : 1 h 36 min
Overall bit rate                         : 4 279 kb/s
Movie name                               : EVO
Encoded date                             : UTC 2018-11-03 07:02:06
Writing application                      : mkvmerge v15.0.0 ('Duel with the Devil') 64-bit
Writing library                          : libebml v1.3.5 + libmatroska v1.4.5

Video
ID                                       : 1
Format                                   : AVC
Format/Info                              : Advanced Video Codec
Format profile                           : High@L4.1
Format settings                          : CABAC / 4 Ref Frames
Format settings, CABAC                   : Yes
Format settings, RefFrames               : 4 frames
Codec ID                                 : V_MPEG4/ISO/AVC
Duration                                 : 1 h 36 min
Bit rate                                 : 4 140 kb/s
Width                                    : 1 920 pixels
Height                                   : 800 pixels
Display aspect ratio                     : 2.40:1
Frame rate mode                          : Constant
Frame rate                               : 30.000 FPS
Color space                              : YUV
Chroma subsampling                       : 4:2:0
Bit depth                                : 8 bits
Scan type                                : Progressive
Bits/(Pixel*Frame)                       : 0.090
Stream size                              : 2.75 GiB (95%)
Writing library                          : x264 core 142 r2479 dd79a61
Encoding settings                        : cabac=1 / ref=1 / deblock=1:0:0 / analyse=0x3:0x113 / me=hex / subme=2 / psy=1 / psy_rd=1.00:0.00 / mixed_ref=0 / me_range=16 / chroma_me=1 / trellis=0 / 8x8dct=1 / cqm=0 / deadzone=21,11 / fast_pskip=1 / chroma_qp_offset=0 / threads=18 / lookahead_threads=6 / sliced_threads=0 / nr=0 / decimate=1 / interlaced=0 / bluray_compat=0 / constrained_intra=0 / bframes=3 / b_pyramid=2 / b_adapt=1 / b_bias=0 / direct=1 / weightb=1 / open_gop=0 / weightp=1 / keyint=300 / keyint_min=30 / scenecut=40 / intra_refresh=0 / rc_lookahead=10 / rc=abr / mbtree=1 / bitrate=4140 / ratetol=1.0 / qcomp=0.60 / qpmin=0 / qpmax=69 / qpstep=4 / vbv_maxrate=62500 / vbv_bufsize=78125 / nal_hrd=none / filler=0 / ip_ratio=1.40 / aq=1:1.00
Default                                  : Yes
Forced                                   : No
Color range                              : Limited
Color primaries                          : BT.709
Transfer characteristics                 : BT.709
Matrix coefficients                      : BT.709

Audio
ID                                       : 2
Format                                   : MPEG Audio
Format version                           : Version 1
Format profile                           : Layer 3
Codec ID                                 : A_MPEG/L3
Codec ID/Hint                            : MP3
Duration                                 : 1 h 36 min
Bit rate mode                            : Constant
Bit rate                                 : 192 kb/s
Channel(s)                               : 2 channels
Sampling rate                            : 44.1 kHz
Frame rate                               : 38.281 FPS (1152 SPF)
Compression mode                         : Lossy
Delay relative to video                  : -67 ms
Stream size                              : 133 MiB (4%)
Default                                  : Yes
Forced                                   : No



Скриншоты:
[+] Всего файлов в раздаче - 1:
The.Nun.2018.1080p.Xixidok.mkv2.88 GB

Текущая раздача:
ДатаКомментарии    РазмерПиры
2018-11-03 U Проклятие монахини / The Nun (2018) WEBRip 1080p | L1 2.88 GB ↑ 305 ↓ 151

Показать еще раздачи по запросу проклятие:
2018-11-05 U Проклятие монахини / The Nun (2018) WEBRip | L1 1.51 GB ↑ 263 ↓ 43
2018-09-30 U Проклятие: Кукла ведьмы / Curse of the Witch's Doll (2018) WEB-DL 1080p | D | Line 3.67 GB ↑ 136 ↓ 30
2018-08-19 U Проклятие клада древних славян (2018) SATRip 1.20 GB ↑ 104 ↓ 43
2018-05-08 U Уиджи: Проклятие Вероники / Verónica (2017) BDRip-AVC от HELLYWOOD | iTunes 1.41 GB ↑ 48 ↓ 30
2018-05-08 U Уиджи: Проклятие Вероники / Verónica (2017) BDRip 1080p от ExKinoRay | iTunes 10.44 GB ↑ 248 ↓ 51
2018-05-08 U Уиджи: Проклятие Вероники / Verónica (2017) BDRip 720p от ExKinoRay | iTunes 5.93 GB ↑ 110 ↓ 63
2018-05-08 U Уиджи: Проклятие Вероники / Verónica (2017) BDRip от MegaPeer | iTunes 1.41 GB ↑ 79 ↓ 44

Отзывы
Зарегистрируйтесь чтобы добавить комментарий.
Обратная связь
Copyleft ©