↑↓Torrent.by
Поиск
Логин: Регистрация
Пароль: Восстановить пароль
Загрузка...

Между мирами / Between Worlds (2018) BDRip 1080p | HDRezka Studio

Скачать mezhdu-mirami-between-worlds-2018-bdrip-1080p-hdrezka-studio.torrent
U Магнитная ссылка Размер: 8.33 GB Раздают: 104 Качают: 188 Добавлен: 2018-11-03 13:57:45
Между мирами / Between Worlds (2018) BDRip 1080p | HDRezka Studio

Название: Между мирами
Оригинальное название: Between Worlds
Год выхода: 2018
Жанр: Tриллер, мистика, детектив, боевик
Режиссер: Мария Пулера
В ролях: Николас Кейдж, Лидия Хёрст, Франка Потенте, Пенелопа Митчелл, Гарретт Клэйтон, Хоппер Пенн, Дэвид Ли Смит, Бриттани Шоу, Филип Форнах, Том Уильямс

О фильме:
В жизни Джо произошла трагедия — он потерял жену и дочь. После встречи с Джулией, которая умеет вызывать умерших, мужчина обретает надежду, однако в его жизни начинает происходить нечто странное. Джо сталкивается с необъяснимыми явлениями и со злом, не желающим уходить.

Страна: Испания
Студия: Rise Up
Продолжительность: 01:30:18
Перевод: Профессиональный многоголосый | HDRezka Studio

Файл
Кодек: x.264
Качество: BDRip 1080p
Видео: MPEG-4 AVC, 1920x1036, 11.5 Mбит/с, 23.976 кадр/с
Аудио #1: Русский ( АС3, 2ch, 192 Кбит/с, 48.0 KHz) Профессиональный (многоголосый, закадровый) HDRezka Studio
Аудио #2: Английский (DTS, 6 ch, 1509 Кбит/с), 48.0 KHz)
Субтитры: английские


[+] MediaInfo

General
Unique ID                      : 190232911461153258144364320579549923937 (0x8F1D86ABCF26A189AD3AD5584EF00A61)
Complete name                  : Between.Worlds.2018.1080p.BDRip.Rustorrents.mkv
Format                         : Matroska
Format version                 : Version 2
File size                      : 8.33 GiB
Duration                       : 1 h 30 min
Overall bit rate               : 13.2 Mb/s
Encoded date                   : UTC 2018-11-01 12:05:02
Writing application            : mkvmerge v7.8.0 ('River Man') 32bit built on Apr  3 2015 12:11:22
Writing library                : libebml v1.3.1 + libmatroska v1.4.2

Video
ID                             : 1
Format                         : AVC
Format/Info                    : Advanced Video Codec
Format profile                 : High@L4.1
Format settings                : CABAC / 4 Ref Frames
Format settings, CABAC         : Yes
Format settings, ReFrames      : 4 frames
Codec ID                       : V_MPEG4/ISO/AVC
Duration                       : 1 h 30 min
Bit rate                       : 11.5 Mb/s
Width                          : 1 920 pixels
Height                         : 1 036 pixels
Display aspect ratio           : 1.85:1
Frame rate mode                : Constant
Frame rate                     : 23.976 (24000/1001) FPS
Color space                    : YUV
Chroma subsampling             : 4:2:0
Bit depth                      : 8 bits
Scan type                      : Progressive
Bits/(Pixel*Frame)             : 0.241
Stream size                    : 7.25 GiB (87%)
Writing library                : x264 core 148 r2795M aaa9aa8
Encoding settings              : cabac=1 / ref=4 / deblock=1:-2:-2 / analyse=0x3:0x113 / me=umh / subme=9 / psy=1 / psy_rd=1.00:0.15 / mixed_ref=1 / me_range=16 / chroma_me=1 / trellis=2 / 8x8dct=1 / cqm=0 / deadzone=21,11 / fast_pskip=1 / chroma_qp_offset=-3 / threads=24 / lookahead_threads=3 / sliced_threads=0 / nr=0 / decimate=1 / interlaced=0 / bluray_compat=0 / constrained_intra=0 / bframes=3 / b_pyramid=2 / b_adapt=1 / b_bias=0 / direct=3 / weightb=1 / open_gop=0 / weightp=2 / keyint=250 / keyint_min=25 / scenecut=40 / intra_refresh=0 / rc_lookahead=50 / rc=2pass / mbtree=1 / bitrate=11500 / ratetol=1.0 / qcomp=0.60 / qpmin=0 / qpmax=69 / qpstep=4 / cplxblur=20.0 / qblur=0.5 / vbv_maxrate=31250 / vbv_bufsize=31250 / nal_hrd=none / filler=0 / ip_ratio=1.40 / aq=1:1.00
Language                       : English
Default                        : Yes
Forced                         : No

Audio #1
ID                             : 2
Format                         : AC-3
Format/Info                    : Audio Coding 3
Commercial name                : Dolby Digital
Codec ID                       : A_AC3
Duration                       : 1 h 30 min
Bit rate mode                  : Constant
Bit rate                       : 192 kb/s
Channel(s)                     : 2 channels
Channel layout                 : L R
Sampling rate                  : 48.0 kHz
Frame rate                     : 31.250 FPS (1536 SPF)
Bit depth                      : 16 bits
Compression mode               : Lossy
Stream size                    : 124 MiB (1%)
Language                       : Russian
Service kind                   : Complete Main
Default                        : Yes
Forced                         : Yes

Audio #2
ID                             : 3
Format                         : DTS
Format/Info                    : Digital Theater Systems
Codec ID                       : A_DTS
Duration                       : 1 h 30 min
Bit rate mode                  : Constant
Bit rate                       : 1 509 kb/s
Channel(s)                     : 6 channels
Channel layout                 : C L R Ls Rs LFE
Sampling rate                  : 48.0 kHz
Frame rate                     : 93.750 FPS (512 SPF)
Bit depth                      : 16 bits
Compression mode               : Lossy
Stream size                    : 975 MiB (11%)
Language                       : English
Default                        : No
Forced                         : No

Text
ID                             : 4
Format                         : UTF-8
Codec ID                       : S_TEXT/UTF8
Codec ID/Info                  : UTF-8 Plain Text
Duration                       : 1 h 19 min
Bit rate                       : 53 b/s
Count of elements              : 1138
Stream size                    : 31.4 KiB (0%)
Language                       : English
Default                        : No
Forced                         : No

Menu
00:00:00.000                   : en:Chapter 1
00:05:35.043                   : en:Chapter 2
00:14:21.402                   : en:Chapter 3
00:21:00.342                   : en:Chapter 4
00:28:21.116                   : en:Chapter 5
00:37:01.845                   : en:Chapter 6
00:45:21.218                   : en:Chapter 7
00:54:06.493                   : en:Chapter 8
01:00:20.283                   : en:Chapter 9
01:06:12.468                   : en:Chapter 10
01:12:46.153                   : en:Chapter 11
01:22:57.306                   : en:Chapter 12



Скриншоты:
[+] Всего файлов в раздаче - 1:
Between.Worlds.2018.1080p.BDRip.Rustorrents.mkv8.33 GB

Текущая раздача:
ДатаКомментарии    РазмерПиры
2018-11-03 U Между мирами / Between Worlds (2018) BDRip 1080p | HDRezka Studio 8.33 GB ↑ 104 ↓ 188

Показать еще раздачи по запросу между:
2018-11-04 U Между мирами / Between Worlds (2018) BDRip-AVC от OlLanDGroup | HDRezka Studio 1.87 GB ↑ 106 ↓ 34
2018-11-04 U Между мирами / Between Worlds (2018) HDRip от MegaPeer | HDRezka Studio 744.34 MB ↑ 71 ↓ 18
2018-11-02 U Между мирами / Between Worlds (2018) HDRip | HDRezka Studio 1.45 GB ↑ 278 ↓ 206
2017-11-29 U Порнофильмы - В диапазоне между отчаянием и надеждой (2017) MP3 142.87 MB ↑ 265 ↓ 18
2017-05-08 U Космос между нами / The Space Between Us (2017) BDRip от ExKinoRay | iTunes 1.41 GB ↑ 203 ↓ 21
2017-05-08 U Космос между нами / The Space Between Us (2017) HDRip от Scarabey | iTunes 3К1.45 GB ↑ 388 ↓ 10
2017-05-07 U Космос между нами / The Space Between Us (2017) BDRip 1080p от ExKinoRay | iTunes 15.86 GB ↑ 159 ↓ 108

Отзывы
Зарегистрируйтесь чтобы добавить комментарий.
Обратная связь
Copyleft ©