↑↓Torrent.by
Поиск
Логин: Регистрация
Пароль: Восстановить пароль
Загрузка...

Лондонские поля / London Fields (2018) WEB-DL 720p | iTunes

Скачать londonskie-polya-london-fields-2018-web-dl-720p-itunes.torrent
U Магнитная ссылка Размер: 3.18 GB Раздают: 131 Качают: 44 Добавлен: 2018-11-03 13:58:06
Лондонские поля / London Fields (2018) WEB-DL 720p | iTunes

Название: Лондонские поля
Оригинальное название: London Fields
Год выхода: 2018
Жанр: триллер, криминал, детектив
Режиссер: Мэтью Каллен
В ролях: Эмбер Хёрд, Джим Стёрджесс, Тео Джеймс, Билли Боб Торнтон, Джейми Александер, Кара Делевинь, Джемма Чан, Джейсон Айзекс, Лили Коул, Дженнифер Миссони

О фильме:
Никола Сикс, роковая красотка, обладающая даром ясновидения, живет с предчувствием своей скорой смерти. Не удержавшись, она начинает опасный любовный роман сразу с тремя совершено разными мужчинами, хотя Никола точно знает, что один из них вскоре станет её убийцей…

Страна: Великобритания, США
Студия: Curiously Bright, Head Gear Films, Living the Dream Films, MindSky Entertainment, Muse Productions, Periscope Entertainment LLC, Tartan Films, Vedette Finance
Продолжительность: 01:43:07
Перевод: Дублированный

Файл
Кодек: H.264
Качество: WEB-DL 720p
Видео: 1280x536@960x536 (2.40:1), 25 fps ~ 3950 Kbps
Звук: AC3, 48 KHz, 6 ch ~ 384 Kb/s
Субтитры: отсутствуют

Семпл
[+] MI:

Общее
Уникальный идентификатор : 196204606673313497549172299719414826032 (0x939BA1FA0FBD52059D95817D01B2C430)
Полное имя : Q:TorFLondon.Fields.2O18.D.WEB-DL.72Oр.mkv
Формат : Matroska
Версия формата : Version 2
Размер файла : 3,18 Гбайт
Продолжительность : 1 ч. 43 м.
Общий поток : 4421 Кбит/сек
Дата кодирования : UTC 2018-10-31 18:08:28
Программа кодирования : mkvmerge v8.3.0 ('Over the Horizon') 64bit
Библиотека кодирования : libebml v1.3.1 + libmatroska v1.4.2
DURATION : 01:43:07.936000000
NUMBER_OF_FRAMES : 193373
NUMBER_OF_BYTES : 297020928
_STATISTICS_WRITING_APP : mkvmerge v8.3.0 ('Over the Horizon') 64bit
_STATISTICS_WRITING_DATE_UTC : 2018-10-31 18:08:28
_STATISTICS_TAGS : BPS DURATION NUMBER_OF_FRAMES NUMBER_OF_BYTES

Видео
Идентификатор : 1
Формат : AVC
Формат/Информация : Advanced Video Codec
Профиль формата : Main@L3.1
Параметр CABAC формата : Нет
Параметр ReFrames формата : 2 кадра
Идентификатор кодека : V_MPEG4/ISO/AVC
Продолжительность : 1 ч. 43 м.
Битрейт : 3949 Кбит/сек
Ширина : 960 пикселей
Высота : 536 пикселей
Соотношение сторон : 2,40:1
Частота кадров : 25,000 кадров/сек
Цветовое пространство : YUV
Субдискретизация насыщенности : 4:2:0
Битовая глубина : 8 бит
Тип развёртки : Прогрессивная
Бит/(Пиксели*Кадры) : 0.307
Размер потока : 2,84 Гбайт (89%)
Язык : English
Default : Да
Forced : Нет
Основные цвета : BT.709-5, BT.1361, IEC 61966-2-4, SMPTE RP177
Характеристики трансфера : BT.709-5, BT.1361
Коэффициенты матрицы : BT.709-5, BT.1361, IEC 61966-2-4 709, SMPTE RP177

Аудио
Идентификатор : 2
Формат : AC-3
Формат/Информация : Audio Coding 3
Расширение режима : CM (complete main)
Идентификатор кодека : A_AC3
Продолжительность : 1 ч. 43 м.
Вид битрейта : Постоянный
Битрейт : 384 Кбит/сек
Каналы : 6 каналов
Расположение каналов : Front: L C R, Side: L R, LFE
Частота : 48,0 КГц
Битовая глубина : 16 бит
Метод сжатия : С потерями
Размер потока : 283 Мбайт (9%)
Язык : Russian
Default : Да
Forced : Нет

Меню
00:00:00.000 : en:Глава 1
00:04:38.440 : en:Глава 2
00:11:54.880 : en:Глава 3
00:16:56.480 : en:Глава 4
00:23:34.320 : en:Глава 5
00:28:31.880 : en:Глава 6
00:33:40.200 : en:Глава 7
00:38:58.440 : en:Глава 8
00:44:29.360 : en:Глава 9
00:49:09.600 : en:Глава 10
00:55:51.760 : en:Глава 11
01:02:47.360 : en:Глава 12
01:07:43.240 : en:Глава 13
01:14:39.240 : en:Глава 14
01:20:39.960 : en:Глава 15
01:26:58.160 : en:Глава 16
01:30:51.520 : en:Глава 17
01:36:58.280 : en:Глава 16



Скриншоты:
[+] Всего файлов в раздаче - 1:
London.Fields.2O18.D.WEB-DL.72Oр.mkv3.18 GB

Текущая раздача:
ДатаКомментарии    РазмерПиры
2018-11-03 U Лондонские поля / London Fields (2018) WEB-DL 720p | iTunes 3.18 GB ↑ 131 ↓ 44

Похожие раздачи по запросу - лондонские:
2018-11-04 U Лондонские поля / London Fields (2018) WEB-DLRip от MegaPeer | iTunes 745.33 MB ↑ 61 ↓ 16
2018-11-01 U Лондонские поля / London Fields (2018) WEB-DL 1080p | iTunes 3.54 GB ↑ 2066 ↓ 937
2018-11-01 U Лондонские поля / London Fields (2018) WEB-DLRip от MegaPeer | iTunes 1.46 GB ↑ 196 ↓ 82

Отзывы
Зарегистрируйтесь чтобы добавить комментарий.
Обратная связь
Copyleft ©