↑↓Torrent.by
Поиск
Логин: Регистрация
Пароль: Восстановить пароль
Загрузка...

Мотылек / Papillon (2017) WEBRip | L2

Скачать motylek-papillon-2017-webrip-l2.torrent
U Магнитная ссылка Размер: 1.62 GB Раздают: 280 Качают: 165 Добавлен: 2018-11-03 15:45:09
Мотылек / Papillon (2017) WEBRip | L2

Название: Мотылек
Оригинальное название: Papillon
Год выхода: 2017
Жанр: Триллер, драма, криминал, детектив
Режиссер: Михаэль Ноер
В ролях: Чарли Ханнэм, Рами Малек, Томми Флэнаган, Ив Хьюсон, Роланд Мёллер, Нина Сеникар, Майкл Сока, Кристофер Фэйрбэнк, Йорик ван Вагенинген, Йоэль Басман
О фильме:
Авантюрист по прозвищу Мотылек получает пожизненный срок в тюрьме для особо опасных преступников - за убийство, которого он не совершал. Когда вокруг враги, а надежда угасает с каждым днём заключения, лишь сила духа может помочь Мотыльку обрести свободу.

Страна: Чехия, Испания, США, Czech Anglo Productions, FishCorb Films, Red Granite Pictures
Продолжительность: 02:13:44
Перевод: Любительский (двухголосый закадровый) | HiWay Grope

Файл
Кодек: XviD
Качество: WEBRip
Видео: 720x304, 25 fps, ~1336 kbps, 0.24 bit/pixel
Звук:
Аудио rus: AC3, 48 kHz, 6 ch, 384 Kbps
Субтитры: отсутствуют

Реклама: присутствует

Семпл

Релиз от: HiWay Grope


[+] MediaInfo:

General
Complete name                            : D:Papillon.2017.WEBRip.HiWayGropePapillon.2017.WEBRip.HiWayGrope.avi
Format                                   : AVI
Format/Info                              : Audio Video Interleave
File size                                : 1.62 GiB
Duration                                 : 2 h 13 min
Overall bit rate                         : 1 730 kb/s
Writing application                      : VirtualDubMod 1.5.10.2 (build 2540/release)
Writing library                          : VirtualDubMod build 2540/release

Video
ID                                       : 0
Format                                   : xvid
Codec ID                                 : xvid
Duration                                 : 2 h 13 min
Bit rate                                 : 1 336 kb/s
Width                                    : 720 pixels
Height                                   : 304 pixels
Display aspect ratio                     : 2.35:1
Frame rate                               : 25.000 FPS
Bits/(Pixel*Frame)                       : 0.244
Stream size                              : 1.25 GiB (77%)

Audio
ID                                       : 1
Format                                   : AC-3
Format/Info                              : Audio Coding 3
Codec ID                                 : 2000
Duration                                 : 2 h 13 min
Bit rate mode                            : Constant
Bit rate                                 : 384 kb/s
Channel(s)                               : 6 channels
Channel positions                        : Front: L C R, Side: L R, LFE
Sampling rate                            : 48.0 kHz
Frame rate                               : 31.250 FPS (1536 SPF)
Bit depth                                : 16 bits
Compression mode                         : Lossy
Stream size                              : 367 MiB (22%)
Alignment                                : Split accross interleaves
Interleave, duration                     : 40  ms (1.00 video frame)
Interleave, preload duration             : 500  ms
Service kind                             : Complete Main




Скриншоты:
[+] Всего файлов в раздаче - 1:
Papillon.2017.WEBRip.HiWayGrope.avi1.62 GB

Текущая раздача:
ДатаКомментарии    РазмерПиры
2018-11-03 U Мотылек / Papillon (2017) WEBRip | L2 1.62 GB ↑ 280 ↓ 165

Показать еще раздачи по запросу мотылек:
2018-11-11 U Мотылек / Papillon (2017) BDRip 1080p от HDReactor | L2 11.64 GB ↑ 105 ↓ 81
2018-11-10 U Мотылек / Papillon (2017) BDRemux 1080p | L2 1К31.99 GB ↑ 48 ↓ 35
2018-11-09 U Мотылек / Papillon (2017) BDRip от MegaPeer | L2 1.46 GB ↑ 142 ↓ 26
2018-11-08 U Мотылек / Papillon (2017) WEB-DLRip | L2 2.18 GB ↑ 118 ↓ 60
2018-11-08 U Мотылек / Papillon (2017) WEB-DL 1080p | L2 4.95 GB ↑ 107 ↓ 58
2018-11-03 U Мотылек / Papillon (2017) WEBRip 720p | L2 1К4.24 GB ↑ 210 ↓ 138
2018-01-27 U Мотылек / Papillon (1973) BDRip-AVC от HQ-ViDEO | P 2.91 GB ↑ 75 ↓ 30

Отзывы
Зарегистрируйтесь чтобы добавить комментарий.
Обратная связь
Copyleft ©