↑↓Torrent.by
Поиск
Логин: Регистрация
Пароль: Восстановить пароль
Загрузка...

Мотылек / Papillon (2017) WEBRip 720p | L2

Скачать motylek-papillon-2017-webrip-720p-l2.torrent
U Магнитная ссылка Размер: 4.24 GB Раздают: 210 Качают: 138 Добавлен: 2018-11-03 15:45:15
Мотылек / Papillon (2017) WEBRip 720p | L2

Название: Мотылек
Оригинальное название: Papillon
Год выхода: 2017
Жанр: Триллер, драма, криминал, детектив
Режиссер: Михаэль Ноер
В ролях: Чарли Ханнэм, Рами Малек, Томми Флэнаган, Ив Хьюсон, Роланд Мёллер, Нина Сеникар, Майкл Сока, Кристофер Фэйрбэнк, Йорик ван Вагенинген, Йоэль Басман
О фильме:
Авантюрист по прозвищу Мотылек получает пожизненный срок в тюрьме для особо опасных преступников - за убийство, которого он не совершал. Когда вокруг враги, а надежда угасает с каждым днём заключения, лишь сила духа может помочь Мотыльку обрести свободу.

Страна: Чехия, Испания, США, Czech Anglo Productions, FishCorb Films, Red Granite Pictures
Продолжительность: 02:13:44
Перевод: Любительский (двухголосый закадровый) | HiWay Grope

Файл
Кодек: MPEG-4 AVC/x.264
Качество: WEBRip 720p
Видео: 1280x536, 25.000 fps, ~4069 kbps, 0.237 bit/pixel
Звук:
Аудио rus: AC3, 48 kHz, 6 ch, 384 Kbps
Субтитры: отсутствуют

Реклама: присутствует

Семпл

Релиз от: HiWay Grope


[+] MediaInfo:

General
Unique ID                                : 253422526153931106371869811736383054830 (0xBEA7673629B868BF97A5F0A6DFBFE3EE)
Complete name                            : D:Papillon.2017.720p.WEBRip.HiWayGropePapillon.2017.720p.WEBRip.HiWayGrope.mkv
Format                                   : Matroska
Format version                           : Version 2
File size                                : 4.24 GiB
Duration                                 : 2 h 13 min
Overall bit rate                         : 4 543 kb/s
Encoded date                             : UTC 2018-11-03 00:04:56
Writing application                      : mkvmerge v3.3.0 ('Language') built on Mar 24 2010 14:59:24
Writing library                          : libebml v0.8.0 + libmatroska v0.9.0

Video
ID                                       : 1
Format                                   : AVC
Format/Info                              : Advanced Video Codec
Format profile                           : Main@L3.1
Format settings                          : CABAC / 3 Ref Frames
Format settings, CABAC                   : Yes
Format settings, RefFrames               : 3 frames
Codec ID                                 : V_MPEG4/ISO/AVC
Duration                                 : 2 h 13 min
Bit rate                                 : 4 069 kb/s
Width                                    : 1 280 pixels
Height                                   : 536 pixels
Display aspect ratio                     : 2.40:1
Frame rate mode                          : Constant
Frame rate                               : 25.000 FPS
Standard                                 : PAL
Color space                              : YUV
Chroma subsampling                       : 4:2:0
Bit depth                                : 8 bits
Scan type                                : Progressive
Bits/(Pixel*Frame)                       : 0.237
Stream size                              : 3.80 GiB (90%)
Language                                 : English
Default                                  : Yes
Forced                                   : No
Color range                              : Limited
Color primaries                          : BT.601 NTSC
Transfer characteristics                 : BT.601
Matrix coefficients                      : BT.601

Audio
ID                                       : 2
Format                                   : AC-3
Format/Info                              : Audio Coding 3
Codec ID                                 : A_AC3
Duration                                 : 2 h 13 min
Bit rate mode                            : Constant
Bit rate                                 : 384 kb/s
Channel(s)                               : 6 channels
Channel positions                        : Front: L C R, Side: L R, LFE
Sampling rate                            : 48.0 kHz
Frame rate                               : 31.250 FPS (1536 SPF)
Bit depth                                : 16 bits
Compression mode                         : Lossy
Stream size                              : 367 MiB (8%)
Service kind                             : Complete Main
Default                                  : Yes
Forced                                   : No




Скриншоты:
[+] Всего файлов в раздаче - 1:
Papillon.2017.720p.WEBRip.HiWayGrope.mkv4.24 GB

Текущая раздача:
ДатаКомментарии    РазмерПиры
2018-11-03 U Мотылек / Papillon (2017) WEBRip 720p | L2 1 К 4.24 GB ↑ 210 ↓ 138

Показать еще раздачи по запросу мотылек:
2018-11-11 U Мотылек / Papillon (2017) BDRip 1080p от HDReactor | L2 11.64 GB ↑ 105 ↓ 81
2018-11-10 U Мотылек / Papillon (2017) BDRemux 1080p | L2 1К31.99 GB ↑ 48 ↓ 35
2018-11-09 U Мотылек / Papillon (2017) BDRip от MegaPeer | L2 1.46 GB ↑ 142 ↓ 26
2018-11-08 U Мотылек / Papillon (2017) WEB-DLRip | L2 2.18 GB ↑ 118 ↓ 60
2018-11-08 U Мотылек / Papillon (2017) WEB-DL 1080p | L2 4.95 GB ↑ 107 ↓ 58
2018-11-03 U Мотылек / Papillon (2017) WEBRip | L2 1.62 GB ↑ 280 ↓ 165
2018-01-27 U Мотылек / Papillon (1973) BDRip-AVC от HQ-ViDEO | P 2.91 GB ↑ 75 ↓ 30

Отзывы
Denian
Вторая экранизация одноимённого автобиографического романа бывшего заключённого Анри Шарьера, который впервые был опубликован во Франции в 1969 году. Первая экранизация — фильм «Мотылёк» 1973 года (в главных ролях Стив МакКуин и Дастин Хоффман).
Спасибо за раздачу!

Зарегистрируйтесь чтобы добавить комментарий.
Обратная связь
Copyleft ©