↑↓Torrent.by
Поиск
Логин: Регистрация
Пароль: Восстановить пароль
Загрузка...

Суперсемейка 2 / Incredibles 2 (2018) BDRip-HEVC 1080p от sm0tJay | iTunes

Скачать supersemeyka-2-incredibles-2018-bdrip-hevc-1080p-ot-sm0tjay-itunes.torrent
U Магнитная ссылка Размер: 5.18 GB Раздают: 90 Качают: 24 Добавлен: 2018-11-04 06:34:44
Суперсемейка 2 / Incredibles 2 (2018) BDRip-HEVC 1080p от sm0tJay | iTunes

Информация о фильме
Название: Суперсемейка 2
Оригинальное название: Incredibles 2
Год выпуска: 2018
Жанр: Мультфильм, фантастика, боевик, комедия, приключения, семейный, полнометражный
Режиссер: Брэд Берд
В ролях: Крэйг Т. Нельсон, Холли Хантер, Сара Вауэлл, Хак Милнер, Кэтрин Кинер, Илай Фучиле, Боб Оденкёрк, Сэмюэл Л. Джексон, Майкл Бёрд, София Буш

О фильме:
После событий первой части суперсемейка пользуется повышенным вниманием со стороны журналистов. Неожиданно оказалось, что обаятельная Миссис Исключительная гораздо лучше смотрится на экране телевизора, чем её муж. Мистеру Исключительному все чаще приходится сидеть дома и приглядывать за детьми, у каждого из которых есть свои причины быть недовольным собственными суперспособностями. Однако семейным проблемам предстоит отступить на второй план, когда окажется, что спокойствию Суперсемейки угрожает новый могущественный враг.

Страна: США
Студия: Pixar Animation Studios, Walt Disney Pictures
Продолжительность: 01:57:50
Субтитры: Русские (Forced, full, SDH), английские

Формат: MKV
Качество: BDRip-HEVC 1080p
Видео: 1920x804, 23.976 fps, HEVC, ~5461 kbps, 10bit
Аудио №1: AC3 / 5.1 / 48 kHz / 384 kbps / 16 bit | DUB - iTunes
Аудио №2: AC3 / 5.1 / 48 kHz / 448 kbps / 16 bit | Original


[+] MediaInfo
General
Unique ID                   : 23941155366015413225887052927084560610 (0x1202E617E7B7D5C285B5B2151DDC80E2)
Complete name               : C:UserscryvgenDesktopРаздачиСуперсемейка 2 - Incredibles 2 (2018) (1080p BluRay x265 10bit).mkv
Format                      : Matroska
Format version              : Version 4 / Version 2
File size                   : 5.18 GiB
Duration                    : 1 h 57 min
Overall bit rate            : 6 296 kb/s
Movie name                  : Rip by: Sm0tJay
Encoded date                : UTC 2018-11-03 07:18:25
Writing application         : mkvmerge v28.1.0 ('Morning Child') 64-bit
Writing library             : libebml v1.3.6 + libmatroska v1.4.9

Video
ID                          : 1
Format                      : HEVC
Format/Info                 : High Efficiency Video Coding
Format profile              : Main 10@L4@Main
Codec ID                    : V_MPEGH/ISO/HEVC
Duration                    : 1 h 57 min
Bit rate                    : 5 461 kb/s
Width                       : 1 920 pixels
Height                      : 804 pixels
Display aspect ratio        : 2.40:1
Frame rate mode             : Constant
Frame rate                  : 23.976 (24000/1001) FPS
Color space                 : YUV
Chroma subsampling          : 4:2:0
Bit depth                   : 10 bits
Bits/(Pixel*Frame)          : 0.148
Stream size                 : 4.49 GiB (87%)
Title                       : Encoded by: Tigole
Writing library             : x265 2.9+1-169e76b6bbcc:[Windows][GCC 8.2.0][64 bit] 10bit
Encoding settings           : cpuid=1111039 / frame-threads=3 / numa-pools=8 / wpp / no-pmode / no-pme / no-psnr / no-ssim / log-level=2 / input-csp=1 / input-res=1920x804 / interlace=0 / total-frames=169514 / level-idc=0 / high-tier=1 / uhd-bd=0 / ref=4 / no-allow-non-conformance / no-repeat-headers / annexb / no-aud / no-hrd / info / hash=0 / no-temporal-layers / open-gop / min-keyint=23 / keyint=250 / gop-lookahead=0 / bframes=8 / b-adapt=2 / b-pyramid / bframe-bias=0 / rc-lookahead=25 / lookahead-slices=4 / scenecut=40 / radl=0 / no-intra-refresh / ctu=64 / min-cu-size=8 / rect / no-amp / max-tu-size=32 / tu-inter-depth=1 / tu-intra-depth=1 / limit-tu=0 / rdoq-level=2 / dynamic-rd=0.00 / no-ssim-rd / signhide / no-tskip / nr-intra=0 / nr-inter=0 / no-constrained-intra / strong-intra-smoothing / max-merge=3 / limit-refs=3 / limit-modes / me=3 / subme=3 / merange=57 / temporal-mvp / weightp / no-weightb / no-analyze-src-pics / deblock=0:0 / sao / no-sao-non-deblock / rd=4 / no-early-skip / rskip / no-fast-intra / no-tskip-fast / no-cu-lossless / no-b-intra / no-splitrd-skip / rdpenalty=0 / psy-rd=2.00 / psy-rdoq=1.00 / no-rd-refine / no-lossless / cbqpoffs=0 / crqpoffs=0 / rc=crf / crf=18.0 / qcomp=0.60 / qpstep=4 / stats-write=0 / stats-read=0 / ipratio=1.40 / pbratio=1.30 / aq-mode=3 / aq-strength=1.00 / cutree / zone-count=0 / no-strict-cbr / qg-size=32 / no-rc-grain / qpmax=69 / qpmin=0 / no-const-vbv / sar=0 / overscan=0 / videoformat=5 / range=0 / colorprim=2 / transfer=2 / colormatrix=2 / chromaloc=0 / display-window=0 / max-cll=0,0 / min-luma=0 / max-luma=1023 / log2-max-poc-lsb=8 / vui-timing-info / vui-hrd-info / slices=1 / no-opt-qp-pps / no-opt-ref-list-length-pps / no-multi-pass-opt-rps / scenecut-bias=0.05 / no-opt-cu-delta-qp / aq-motion / no-hdr / no-hdr-opt / no-dhdr10-opt / no-idr-recovery-sei / analysis-reuse-level=5 / scale-factor=0 / refine-intra=0 / refine-inter=0 / refine-mv=0 / no-limit-sao / ctu-info=0 / no-lowpass-dct / refine-mv-type=0 / copy-pic=1 / max-ausize-factor=1.0 / no-dynamic-refine / no-single-sei
Language                    : English
Default                     : Yes
Forced                      : No

Audio #1
ID                          : 2
Format                      : AC-3
Format/Info                 : Audio Coding 3
Format settings, Endianness : Big
Codec ID                    : A_AC3
Duration                    : 1 h 57 min
Bit rate mode               : Constant
Bit rate                    : 384 kb/s
Channel(s)                  : 6 channels
Channel positions           : Front: L C R, Side: L R, LFE
Sampling rate               : 48.0 kHz
Frame rate                  : 31.250 FPS (1536 spf)
Bit depth                   : 16 bits
Compression mode            : Lossy
Stream size                 : 324 MiB (6%)
Title                       : Дубляж (iTunes) (Russian - AC-3 5.1)
Language                    : Russian
Service kind                : Complete Main
Default                     : Yes
Forced                      : No

Audio #2
ID                          : 3
Format                      : AC-3
Format/Info                 : Audio Coding 3
Format settings, Endianness : Big
Codec ID                    : A_AC3
Duration                    : 1 h 57 min
Bit rate mode               : Constant
Bit rate                    : 448 kb/s
Channel(s)                  : 6 channels
Channel positions           : Front: L C R, Side: L R, LFE
Sampling rate               : 48.0 kHz
Frame rate                  : 31.250 FPS (1536 spf)
Bit depth                   : 16 bits
Compression mode            : Lossy
Stream size                 : 378 MiB (7%)
Title                       : Original (English - AC3 5.1)
Language                    : English
Service kind                : Complete Main
Default                     : No
Forced                      : No

Text #1
ID                          : 4
Format                      : UTF-8
Codec ID                    : S_TEXT/UTF8
Codec ID/Info               : UTF-8 Plain Text
Duration                    : 1 h 7 min
Bit rate                    : 0 b/s
Count of elements           : 3
Stream size                 : 203 Bytes (0%)
Title                       : Forced
Language                    : Russian
Default                     : Yes
Forced                      : No

Text #2
ID                          : 5
Format                      : UTF-8
Codec ID                    : S_TEXT/UTF8
Codec ID/Info               : UTF-8 Plain Text
Duration                    : 1 h 55 min
Bit rate                    : 118 b/s
Count of elements           : 1760
Stream size                 : 101 KiB (0%)
Title                       : Full
Language                    : Russian
Default                     : No
Forced                      : No

Text #3
ID                          : 6
Format                      : UTF-8
Codec ID                    : S_TEXT/UTF8
Codec ID/Info               : UTF-8 Plain Text
Duration                    : 1 h 54 min
Bit rate                    : 130 b/s
Count of elements           : 2304
Stream size                 : 110 KiB (0%)
Title                       : SDH
Language                    : Russian
Default                     : No
Forced                      : No

Text #4
ID                          : 7
Format                      : UTF-8
Codec ID                    : S_TEXT/UTF8
Codec ID/Info               : UTF-8 Plain Text
Duration                    : 1 h 54 min
Bit rate                    : 81 b/s
Count of elements           : 2326
Stream size                 : 68.8 KiB (0%)
Title                       : SDH
Language                    : English
Default                     : No
Forced                      : No

Text #5
ID                          : 8
Format                      : UTF-8
Codec ID                    : S_TEXT/UTF8
Codec ID/Info               : UTF-8 Plain Text
Duration                    : 1 h 54 min
Bit rate                    : 124 b/s
Count of elements           : 2325
Stream size                 : 105 KiB (0%)
Title                       : SDH Colored
Language                    : English
Default                     : No
Forced                      : No

Menu
00:00:00.000                : en:Chapter 01
00:03:22.327                : en:Chapter 02
00:08:53.616                : en:Chapter 03
00:09:36.784                : en:Chapter 04
00:13:38.275                : en:Chapter 05
00:15:44.735                : en:Chapter 06
00:21:19.736                : en:Chapter 07
00:23:28.281                : en:Chapter 08
00:27:08.793                : en:Chapter 09
00:28:59.571                : en:Chapter 10
00:35:10.900                : en:Chapter 11
00:39:07.845                : en:Chapter 12
00:42:43.894                : en:Chapter 13
00:43:42.411                : en:Chapter 14
00:47:35.352                : en:Chapter 15
00:48:53.889                : en:Chapter 16
00:54:15.585                : en:Chapter 17
00:56:16.039                : en:Chapter 18
01:00:58.696                : en:Chapter 19
01:02:01.884                : en:Chapter 20
01:06:55.511                : en:Chapter 21
01:09:18.237                : en:Chapter 22
01:11:28.200                : en:Chapter 23
01:12:37.686                : en:Chapter 24
01:14:39.266                : en:Chapter 25
01:18:00.967                : en:Chapter 26
01:20:32.536                : en:Chapter 27
01:25:01.763                : en:Chapter 28
01:27:59.440                : en:Chapter 29
01:31:53.925                : en:Chapter 30
01:33:26.434                : en:Chapter 31
01:36:25.237                : en:Chapter 32
01:37:45.192                : en:Chapter 33
01:43:56.897                : en:Chapter 34
01:45:35.912                : en:Chapter 35
01:47:30.944                : en:Chapter 36



[+] Релиз
Закодировал Видео - Tigole
Собрал Рип - sm0tJay



Скриншоты:
[+] Всего файлов в раздаче - 1:
Суперсемейка 2 - Incredibles 2 (2018) (1080p BluRay x265 10bit).mkv5.18 GB

Текущая раздача:
ДатаКомментарии    РазмерПиры
2018-11-04 U Суперсемейка 2 / Incredibles 2 (2018) BDRip-HEVC 1080p от sm0tJay | iTunes 5.18 GB ↑ 90 ↓ 24

Показать еще раздачи по запросу суперсемейка:
2018-11-06 U Суперсемейка 2 / Incredibles 2 (2018) BDRip от ExKinoRay | iTunes 2.13 GB ↑ 54 ↓ 9
2018-11-05 U Суперсемейка 2 / Incredibles 2 (2018) BDRip-AVC от HELLYWOOD | iTunes 1.41 GB ↑ 166 ↓ 49
2018-11-05 U Суперсемейка 2 / Incredibles 2 (2018) BDRip 1080p от Ash61 | 3D-Video | halfOU | iTunes 7.59 GB ↑ 154 ↓ 54
2018-11-05 U Суперсемейка 2 / Incredibles 2 (2018) BDRip от ExKinoRay | iTunes 1.41 GB ↑ 164 ↓ 33
2018-11-05 U Суперсемейка 2 / Incredibles 2 (2018) BDRip 1080p от qqss44 & MegaPeer | iTunes 1К5.26 GB ↑ 492 ↓ 149
2018-11-03 U Суперсемейка 2 / Incredibles 2 (2018) BDRip-AVC от ExKinoRay | iTunes 2.27 GB ↑ 69 ↓ 28
2018-11-03 U Суперсемейка 2 / Incredibles 2 (2018) HDRip от MegaPeer | iTunes 747.34 MB ↑ 42 ↓ 7

Отзывы
Зарегистрируйтесь чтобы добавить комментарий.
Обратная связь
Copyleft ©