↑↓Torrent.by
Поиск
Логин: Регистрация
Пароль: Восстановить пароль
Загрузка...

Школа / The School (2018) WEBRip 720p | L2

Скачать shkola-the-school-2018-webrip-720p-l2.torrent
U Магнитная ссылка Размер: 2.92 GB Раздают: 45 Качают: 12 Добавлен: 2018-11-04 06:35:36
Школа / The School (2018) WEBRip 720p | L2

Название: Школа
Оригинальное название: The School
Год выхода: 2018
Жанр: Ужасы, триллер
Режиссер: Сторм Эшвуд
В ролях: Николас Хоуп, Меган Друри, Уилл МакДональд, Милли Олкок, Тексас Уоттерстон, Джек Рувальд, Кристиан Уиллис, Алексия Сантосуоссо, Сасси Соудидис, Шерил Крэйг
О фильме:
Пытаясь помочь сыну, впавшему в кому, его мать оказывается в заброшенной школе. Чтобы выжить в месте, где потусторонний мир соприкасается с реальным, ей придётся взглянуть в глаза истинному страху.

Страна: Австралия, Bronte Pictures,Head Gear Films,Kreo Films FZ
Продолжительность: 01:29:17
Перевод: Любительский (двухголосый закадровый) | HiWay Grope

Файл
Кодек: MPEG-4 AVC/x.264
Качество: WEBRip 720p
Видео: 1280x536, 25.000 fps, ~4203 kbps, 0.245 bit/pixel
Звук:
Аудио rus: AC3, 48 kHz, 6 ch, 384 Kbps
Субтитры: отсутствуют

Реклама: присутствует

Семпл

Релиз от: HiWay Grope


[+] MediaInfo:

General
Unique ID                                : 205660679034055880919556943480462758936 (0x9AB8CE56E615F5A5B7FF0D4C5DEFD418)
Complete name                            : D:The.School.2018.720p.WEBRip.HiWayGropeThe.School.2018.720p.WEBRip.HiWayGrope.mkv
Format                                   : Matroska
Format version                           : Version 2
File size                                : 2.92 GiB
Duration                                 : 1 h 29 min
Overall bit rate                         : 4 680 kb/s
Encoded date                             : UTC 2018-11-03 00:26:57
Writing application                      : mkvmerge v3.3.0 ('Language') built on Mar 24 2010 14:59:24
Writing library                          : libebml v0.8.0 + libmatroska v0.9.0

Video
ID                                       : 1
Format                                   : AVC
Format/Info                              : Advanced Video Codec
Format profile                           : Main@L3.1
Format settings                          : CABAC / 3 Ref Frames
Format settings, CABAC                   : Yes
Format settings, RefFrames               : 3 frames
Codec ID                                 : V_MPEG4/ISO/AVC
Duration                                 : 1 h 29 min
Bit rate                                 : 4 203 kb/s
Width                                    : 1 280 pixels
Height                                   : 536 pixels
Display aspect ratio                     : 2.40:1
Frame rate mode                          : Constant
Frame rate                               : 25.000 FPS
Standard                                 : PAL
Color space                              : YUV
Chroma subsampling                       : 4:2:0
Bit depth                                : 8 bits
Scan type                                : Progressive
Bits/(Pixel*Frame)                       : 0.245
Stream size                              : 2.62 GiB (90%)
Language                                 : English
Default                                  : Yes
Forced                                   : No
Color range                              : Limited
Color primaries                          : BT.601 NTSC
Transfer characteristics                 : BT.601
Matrix coefficients                      : BT.601

Audio
ID                                       : 2
Format                                   : AC-3
Format/Info                              : Audio Coding 3
Codec ID                                 : A_AC3
Duration                                 : 1 h 29 min
Bit rate mode                            : Constant
Bit rate                                 : 384 kb/s
Channel(s)                               : 6 channels
Channel positions                        : Front: L C R, Side: L R, LFE
Sampling rate                            : 48.0 kHz
Frame rate                               : 31.250 FPS (1536 SPF)
Bit depth                                : 16 bits
Compression mode                         : Lossy
Stream size                              : 245 MiB (8%)
Service kind                             : Complete Main
Default                                  : Yes
Forced                                   : No




Скриншоты:
[+] Всего файлов в раздаче - 1:
The.School.2018.720p.WEBRip.HiWayGrope.mkv2.92 GB

Текущая раздача:
ДатаКомментарии    РазмерПиры
2018-11-04 U Школа / The School (2018) WEBRip 720p | L2 2.92 GB ↑ 45 ↓ 12

Показать еще раздачи по запросу школа:
2018-10-31 U Школа / The School (2018) WEBRip | L1 1.16 GB ↑ 187 ↓ 51
2018-10-17 U Клуб «Школа» / Public Schooled (2017) BDRip от MegaPeer | iTunes 1.42 GB ↑ 74 ↓ 12
2018-10-17 U Клуб «Школа» / Public Schooled (2017) BDRip 720p | iTunes 4.27 GB ↑ 38 ↓ 14
2018-10-17 U Клуб «Школа» / Public Schooled (2017) BDRip 1080p | iTunes 8.53 GB ↑ 111 ↓ 17
2018-10-16 U Клуб «Школа» / Public Schooled (2017) BDRip | iTunes 1.46 GB ↑ 137 ↓ 60
2018-07-23 U Лыжная школа / Ski School (1990) BDRip от Koenig | P2 1.09 GB ↑ 124 ↓ 24
2018-07-01 U Школа стюардесс / Stewardess School (1986) HDTVRip 1080p | P, A, L1 7.05 GB ↑ 56 ↓ 23

Отзывы
Зарегистрируйтесь чтобы добавить комментарий.
Обратная связь
Copyleft ©