↑↓Torrent.by
Поиск
Логин: Регистрация
Пароль: Восстановить пароль
Загрузка...

Выжившие / Hostile (2017) BDRip-AVC от OlLanDGroup | iTunes

Скачать vyzhivshie-hostile-2017-bdrip-avc-ot-ollandgroup-itunes.torrent
U Магнитная ссылка Размер: 1.67 GB Раздают: 48 Качают: 9 Добавлен: 2018-11-04 06:35:39
Выжившие / Hostile (2017) BDRip-AVC от OlLanDGroup | iTunes

Выжившие / Hostile
«Апокалипсис – это только начало»

Год выпуска: 2017
Страна: Франция
Производство: Full Time Films, H Films, Title Media, Convergence Films
Жанр:  Ужасы, драма

Режиссёр: Матьё Тури
В ролях: Бриттани Эшворт, Грегори Фетусси, Хавьер Ботет, Джей Бенедикт, Дэвид Гасман, Лаура Д’Ариста, Карл Гаррисон, Мохамед Арусси, Ричард Мейман, Атон, Гари Наполи, Андреас Пилацикас, Давид Сереро, Стефани Слама, Роб Танстолл

Перевод: Профессиональный многоголосый | [iTunes]
Субтитры: Английские (полные, SDH)
Реклама: Отсутствует

Описание: После апокалипсиса, когда большая часть населения Земли была уничтожена, появились ОНИ. Их назвали Выжившими. Никто не знает, живы они или мертвы, из этого мира или нет. Но теперь это их мир. Они здесь охотники, а люди - их добыча. Джулиет одна из своей группы рискует отправиться в покинутый людьми город на поиски пищи. Её путь будет долгим, он лежит через неизведанные опасные земли, и до наступления темноты она не успеет вернуться в лагерь.

Качество: BDRip-AVC | BluRay Disc | Выжившие / Hostile (2017) BD-Remux 1080p от TeamHD
Продолжительность: 01:23:14

Формат: MKV
Видео кодек: MPEG-4 AVC
Аудио кодек: AC3
Видео: 1024x428 (2.40:1), 23,976 fps, x264 ~2 032 kbps avg, 0.193 bit/pixel
Аудио #1: 48 kHz, AC3 Dolby Digital, 3/2 (L,C,R,l,r) + LFE ch, ~384.00 kbps avg | RUS (iTunes)
Аудио #2: 48 kHz, AC3 Dolby Digital, 3/2 (L,C,R,l,r) + LFE ch, ~448.00 kbps avg | ENG

Дата премьеры (мир): 4 июля 2017
Дата премьеры (РФ): 30 августа 2018, «Экспонента»
Цифровой релиз: 27 сентября 2018, «Экспонента»

Релиз:


[+] MediaInfo

Общее
Уникальный идентификатор                 : 117480344425722509406489894989918279856 (0x5861E42D96F1D0CAC2C9AB602A0A98B0)
Полное имя                               : F:OlLanDGroupHostile.2017.BDRip(AVC).OlLanDGroup.mkv
Формат                                   : Matroska
Версия формата                           : Version 4 / Version 2
Размер файла                             : 1,67 Гбайт
Продолжительность                        : 1 ч. 23 м.
Общий поток                              : 2864 Кбит/сек
Название фильма                          : Hostile.2017   #TorpedoUK#
Дата кодирования                         : UTC 2018-11-03 06:41:19
Программа кодирования                    : mkvmerge v25.0.0 ('Prog Noir') 64-bit
Библиотека кодирования                   : libebml v1.3.6 + libmatroska v1.4.9

Видео
Идентификатор                            : 1
Формат                                   : AVC
Формат/Информация                        : Advanced Video Codec
Профиль формата                          : High@L4.1
Параметр CABAC формата                   : Да
Параметр ReFrames формата                : 10 кадров
Идентификатор кодека                     : V_MPEG4/ISO/AVC
Продолжительность                        : 1 ч. 23 м.
Битрейт                                  : 2032 Кбит/сек
Ширина                                   : 1024 пикселя
Высота                                   : 428 пикселей
Соотношение сторон                       : 2,40:1
Режим частоты кадров                     : Постоянный
Частота кадров                           : 23,976 (24000/1001) кадра/сек
Цветовое пространство                    : YUV
Субдискретизация насыщенности            : 4:2:0
Битовая глубина                          : 8 бит
Тип развёртки                            : Прогрессивная
Бит/(Пиксели*Кадры)                      : 0.193
Размер потока                            : 1,18 Гбайт (71%)
Библиотека кодирования                   : x264 core 146 r2538 121396c
Настройки программы                      : cabac=1 / ref=10 / deblock=1:-3:-3 / analyse=0x3:0x113 / me=umh / subme=11 / psy=1 / psy_rd=0.99:0.04 / mixed_ref=1 / me_range=48 / chroma_me=1 / trellis=2 / 8x8dct=1 / cqm=0 / deadzone=21,11 / fast_pskip=1 / chroma_qp_offset=-3 / threads=6 / lookahead_threads=1 / sliced_threads=0 / nr=0 / decimate=1 / interlaced=0 / bluray_compat=0 / constrained_intra=0 / bframes=11 / b_pyramid=2 / b_adapt=2 / b_bias=0 / direct=3 / weightb=1 / open_gop=0 / weightp=2 / keyint=240 / keyint_min=23 / scenecut=40 / intra_refresh=0 / rc_lookahead=40 / rc=2pass / mbtree=0 / bitrate=2032 / ratetol=1.0 / qcomp=0.60 / qpmin=0 / qpmax=69 / qpstep=4 / cplxblur=20.0 / qblur=0.5 / vbv_maxrate=50000 / vbv_bufsize=62500 / nal_hrd=none / filler=0 / ip_ratio=1.40 / pb_ratio=1.30 / aq=1:1.00
Язык                                     : English
Default                                  : Да
Forced                                   : Нет

Аудио #1
Идентификатор                            : 2
Формат                                   : AC-3
Формат/Информация                        : Audio Coding 3
Расширение режима                        : CM (complete main)
Параметр Endianness формата              : Big
Идентификатор кодека                     : A_AC3
Продолжительность                        : 1 ч. 23 м.
Вид битрейта                             : Постоянный
Битрейт                                  : 384 Кбит/сек
Каналы                                   : 6 каналов
Расположение каналов                     : Front: L C R, Side: L R, LFE
Частота                                  : 48,0 КГц
Частота кадров                           : 31,250 кадров/сек (1536 spf)
Битовая глубина                          : 16 бит
Метод сжатия                             : С потерями
Размер потока                            : 229 Мбайт (13%)
Заголовок                                : MVO [iTunes]
Язык                                     : Russian
Default                                  : Да
Forced                                   : Нет

Аудио #2
Идентификатор                            : 3
Формат                                   : AC-3
Формат/Информация                        : Audio Coding 3
Расширение режима                        : CM (complete main)
Параметр Endianness формата              : Big
Идентификатор кодека                     : A_AC3
Продолжительность                        : 1 ч. 23 м.
Вид битрейта                             : Постоянный
Битрейт                                  : 448 Кбит/сек
Каналы                                   : 6 каналов
Расположение каналов                     : Front: L C R, Side: L R, LFE
Частота                                  : 48,0 КГц
Частота кадров                           : 31,250 кадров/сек (1536 spf)
Битовая глубина                          : 16 бит
Метод сжатия                             : С потерями
Размер потока                            : 267 Мбайт (16%)
Заголовок                                : [Original]
Язык                                     : English
Default                                  : Нет
Forced                                   : Нет

Текст #1
Идентификатор                            : 4
Формат                                   : UTF-8
Идентификатор кодека                     : S_TEXT/UTF8
Идентификатор кодека/Информация          : UTF-8 Plain Text
Продолжительность                        : 1 ч. 16 м.
Битрейт                                  : 28 бит/сек
Count of elements                        : 632
Размер потока                            : 15,7 Кбайт (0%)
Заголовок                                : Full
Язык                                     : English
Default                                  : Нет
Forced                                   : Нет

Текст #2
Идентификатор                            : 5
Формат                                   : UTF-8
Идентификатор кодека                     : S_TEXT/UTF8
Идентификатор кодека/Информация          : UTF-8 Plain Text
Продолжительность                        : 1 ч. 19 м.
Битрейт                                  : 40 бит/сек
Count of elements                        : 975
Размер потока                            : 23,4 Кбайт (0%)
Заголовок                                : SDH
Язык                                     : English
Default                                  : Нет
Forced                                   : Нет

Меню
00:00:00.000                             : en:00:00:00.000
00:07:11.097                             : en:00:07:11.097
00:15:20.920                             : en:00:15:20.920
00:23:37.165                             : en:00:23:37.165
00:28:50.437                             : en:00:28:50.437
00:37:45.471                             : en:00:37:45.471
00:42:48.065                             : en:00:42:48.065
00:51:23.914                             : en:00:51:23.914
00:57:39.164                             : en:00:57:39.164
01:04:27.822                             : en:01:04:27.822
01:10:09.914                             : en:01:10:09.914
01:19:26.762                             : en:01:19:26.762



Скриншоты:
[+] Всего файлов в раздаче - 1:
Hostile.2017.BDRip(AVC).OlLanDGroup.mkv1.67 GB

Текущая раздача:
ДатаКомментарии    РазмерПиры
2018-11-04 U Выжившие / Hostile (2017) BDRip-AVC от OlLanDGroup | iTunes 1.67 GB ↑ 48 ↓ 9

Похожие раздачи по запросу - выжившие:
2018-11-01 U Выжившие / Hostile (2017) BDRip от MegaPeer | iTunes 1.42 GB ↑ 123 ↓ 34
2018-09-30 U Выжившие / Hostile (2017) BDRip 1080p | IVI 6.78 GB ↑ 177 ↓ 47
2018-09-30 U Выжившие / Hostile (2017) HDRip от MegaPeer | P 1.46 GB ↑ 301 ↓ 55
2018-09-29 U Выжившие / Hostile (2017) WEBRip 1080p | IVI 3.15 GB ↑ 404 ↓ 177

Отзывы
Зарегистрируйтесь чтобы добавить комментарий.
Обратная связь
Copyleft ©