↑↓Torrent.by
Поиск
Логин: Регистрация
Пароль: Восстановить пароль
Загрузка...

Без боли / Painless (2017) WEB-DL 1080p от OlLanDGroup | HDRezka Studio

Скачать bez-boli-painless-2017-web-dl-1080p-ot-ollandgroup-hdrezka-studio.torrent
U Магнитная ссылка Размер: 2.46 GB Раздают: 189 Качают: 47 Добавлен: 2018-11-05 06:45:55
Без боли / Painless (2017) WEB-DL 1080p от OlLanDGroup | HDRezka Studio

Без боли / Painless
«If you can't feel pain, how do you know you're alive?»

Год выпуска: 2017
Страна: США
Производство: Blue Bus Productions, Ambrosino / Delmenico
Жанр:  Триллер, драма

Режиссёр: Джордан Хоровиц
В ролях: Джои Клейн, Эвалена Мари, Кип Гилмен, Паскаль Йен Пфистер, Томми Сокс, Nick Latrenta, Джошуа Копман, Eileen Paulino, Дэвид Уэйндел, Лино Танака

Перевод:  Профессиональный (многоголосый закадровый) | [HDRezka Studio]
Субтитры: Английские
Реклама: Отсутствует

Описание: Генри Лонг с самых малых лет не способен ощущать какую-либо физическую боль. Он не заметит ожога на коже от пролившегося кофе и не почувствует внутреннего кровотечения после падения с высоты. Он пытается найти лекарство от этого состояния с помощью своего врача, но когда тот оказывается неспособен предоставить Генри компоненты, которые ему нужны для своих собственных экспериментов, тот прибегает к работе с учёным, чьи мотивы не ограничиваются одним лишь желанием излечить необычного пациента.

Качество: WEB-DL 1080p | AMZN Version | Painless 2017 1080p AMZN WEB-DL DDP5 1 H 264-NTG
Продолжительность: 01:21:47

Формат: MKV
Видео кодек: MPEG-4 AVC
Аудио кодек: AC3
Видео: 1920x1040 (1.85:1), 23,976 fps, x264 ~3 470 kbps avg, 0.072 bit/pixel
Аудио #1: 48 kHz, AC3 Dolby Digital, 2 (L,R) ch, ~192.00 kbps avg | RUS [HDRezka Studio]
Аудио #2: 48 kHz, E-AC3 Dolby Digital Plus, 3/2 (L,C,R,l,r) + LFE ch, ~640.00 kbps avg | ENG

Дата премьеры (мир):  2 марта 2017

Релиз:


[+] MediaInfo

Общее
Уникальный идентификатор                 : 10967132348694254516875576153168117787 (0x840315F3C7F09DEBCDCFD7C6DB3801B)
Полное имя                               : F:OlLanDGroupPainless.2017.WEB-DL(1080p).OlLanDGroup.mkv
Формат                                   : Matroska
Версия формата                           : Version 4 / Version 2
Размер файла                             : 2,46 Гбайт
Продолжительность                        : 1 ч. 21 м.
Общий поток                              : 4304 Кбит/сек
Название фильма                          : Painless.2017   #TorpedoUK#
Дата кодирования                         : UTC 2018-11-04 10:24:09
Программа кодирования                    : mkvmerge v25.0.0 ('Prog Noir') 64-bit
Библиотека кодирования                   : libebml v1.3.6 + libmatroska v1.4.9

Видео
Идентификатор                            : 1
Формат                                   : AVC
Формат/Информация                        : Advanced Video Codec
Профиль формата                          : High@L4
Параметр CABAC формата                   : Да
Параметр ReFrames формата                : 4 кадра
Идентификатор кодека                     : V_MPEG4/ISO/AVC
Продолжительность                        : 1 ч. 21 м.
Битрейт                                  : 3470 Кбит/сек
Ширина                                   : 1920 пикселей
Высота                                   : 1040 пикселей
Соотношение сторон                       : 1,85:1
Режим частоты кадров                     : Постоянный
Частота кадров                           : 23,976 (24000/1001) кадра/сек
Цветовое пространство                    : YUV
Субдискретизация насыщенности            : 4:2:0
Битовая глубина                          : 8 бит
Тип развёртки                            : Прогрессивная
Бит/(Пиксели*Кадры)                      : 0.072
Размер потока                            : 1,98 Гбайт (81%)
Default                                  : Да
Forced                                   : Нет
Цветовой диапазон                        : Limited
Основные цвета                           : BT.709
Характеристики трансфера                 : BT.709
Коэффициенты матрицы                     : BT.709

Аудио #1
Идентификатор                            : 2
Формат                                   : AC-3
Формат/Информация                        : Audio Coding 3
Расширение режима                        : CM (complete main)
Параметр Endianness формата              : Big
Идентификатор кодека                     : A_AC3
Продолжительность                        : 1 ч. 21 м.
Вид битрейта                             : Постоянный
Битрейт                                  : 192 Кбит/сек
Каналы                                   : 2 канала
Расположение каналов                     : Front: L R
Частота                                  : 48,0 КГц
Частота кадров                           : 31,250 кадров/сек (1536 spf)
Битовая глубина                          : 16 бит
Метод сжатия                             : С потерями
Размер потока                            : 112 Мбайт (4%)
Заголовок                                : MVO [HDRezka Studio]
Язык                                     : Russian
Default                                  : Да
Forced                                   : Нет

Аудио #2
Идентификатор                            : 3
Формат                                   : E-AC-3
Формат/Информация                        : Enhanced Audio Coding 3
Параметр Endianness формата              : Big
Идентификатор кодека                     : A_EAC3
Продолжительность                        : 1 ч. 21 м.
Вид битрейта                             : Постоянный
Битрейт                                  : 640 Кбит/сек
Каналы                                   : 6 каналов
Расположение каналов                     : Front: L C R, Side: L R, LFE
Частота                                  : 48,0 КГц
Частота кадров                           : 187,500 кадров/сек (256 spf)
Метод сжатия                             : С потерями
Размер потока                            : 374 Мбайт (15%)
Заголовок                                : [Original]
Язык                                     : English
Default                                  : Нет
Forced                                   : Нет

Текст #1
Идентификатор                            : 4
Формат                                   : UTF-8
Идентификатор кодека                     : S_TEXT/UTF8
Идентификатор кодека/Информация          : UTF-8 Plain Text
Продолжительность                        : 1 ч. 17 м.
Битрейт                                  : 45 бит/сек
Count of elements                        : 834
Размер потока                            : 25,8 Кбайт (0%)
Заголовок                                : Full
Язык                                     : English
Default                                  : Нет
Forced                                   : Нет

Текст #2
Идентификатор                            : 5
Формат                                   : UTF-8
Идентификатор кодека                     : S_TEXT/UTF8
Идентификатор кодека/Информация          : UTF-8 Plain Text
Продолжительность                        : 1 ч. 17 м.
Битрейт                                  : 49 бит/сек
Count of elements                        : 925
Размер потока                            : 28,4 Кбайт (0%)
Заголовок                                : SDH
Язык                                     : English
Default                                  : Нет
Forced                                   : Нет



Скриншоты:
[+] Всего файлов в раздаче - 1:
Painless.2017.WEB-DL(1080p).OlLanDGroup.mkv2.46 GB

Текущая раздача:
ДатаКомментарии    РазмерПиры
2018-11-05 U Без боли / Painless (2017) WEB-DL 1080p от OlLanDGroup | HDRezka Studio 2.46 GB ↑ 189 ↓ 47

Похожие раздачи по запросу - боли:
2018-11-05 U Без боли / Painless (2017) WEB-DLRip-AVC от OlLanDGroup | HDRezka Studio 1.67 GB ↑ 256 ↓ 78
2017-11-13 U Поляков Юрий - Фантомные боли (2017) FB2 1К1.68 MB ↑ 334 ↓ 8
2017-07-18 U Алексеев Антон - Благодарный позвоночник. Как навсегда избавить его от боли (2017) FB2 2.95 MB ↑ 602 ↓ 30
2017-07-05 U Шив Дуа - Как избавиться от боли в шее. Шейный спондилез (2009) FB2 2.96 MB ↑ 178 ↓ 20
2016-05-23 U Дикуль Валентин - 3 лучшие системы от боли в спине (2011) FB2 5.94 MB ↑ 497 ↓ 3
2013-11-20 U Быстро и без боли / Kurz und schmerzlos (1998) DVDRip 1.45 GB ↑ 19 ↓ 15

Отзывы
Зарегистрируйтесь чтобы добавить комментарий.
Обратная связь
Copyleft ©