↑↓Torrent.by
Поиск
Логин: Регистрация
Пароль: Восстановить пароль
Загрузка...

Слендермен / Slender Man (2018) BDRip-AVC от OlLanDGroup | iTunes

Скачать slendermen-slender-man-2018-bdrip-avc-ot-ollandgroup-itunes.torrent
U Магнитная ссылка Размер: 1.77 GB Раздают: 874 Качают: 294 Добавлен: 2018-11-05 11:08:36
Слендермен / Slender Man (2018) BDRip-AVC от OlLanDGroup | iTunes

Слендермен / Slender Man

Год выпуска: 2018
Страна: США, Бельгия
Производство: Mythology Entertainment, Madhouse Entertainment
Жанр:  Ужасы, триллер, детектив

Режиссёр: Сильвен Уайт
В ролях: Джои Кинг, Джулия Голден Теллес, Жасмин Сабино, Анналиса Бассо, Алекс Фицалан, Тейлор Ричардсон, Хавьер Ботет, Джессика Бланк, Майкл Рейли Бурк, Кевин Чэпмен

Перевод: Дублированный | [iTunes]
Субтитры: Русские (полные), Английские (полные, SDH)
Реклама: Отсутствует

Описание: Четыре девчонки, которые давно поддерживали между собой дружеские отношения, нередко встречались, чтоб весело провести время. В тот вечер они опять собрались вместе. Когда же подружкам стало известно, что их знакомые парни задумали вызвать жуткое существо, которое, по слухам, было способно при помощи гипноза овладеть подростком, а потом забрать его из мира живых, героини принялись искать информацию об этом страшном создании в глобальной сети. Вскоре девушки предприняли попытку вызова этого монстра, не особенно рассчитывая на успех, а когда одна из них исчезла, им стало не до смеха...

Качество: BDRip-AVC | BDRemux | Slender.Man.2018.1080p.BluRay.REMUX.AVC.DTS-HD.MA.5.1-FGT
Продолжительность: 01:33:11

Формат: MKV
Видео кодек: MPEG-4 AVC
Аудио кодек: AC3
Видео: 1024x428 (2.40:1), 23,976 fps, x264 ~1 884 kbps avg, 0.179 bit/pixel
Аудио #1: 48 kHz, AC3 Dolby Digital, 3/2 (L,C,R,l,r) + LFE ch, ~384.00 kbps avg | RUS (iTunes)
Аудио #2: 48 kHz, AC3 Dolby Digital, 3/2 (L,C,R,l,r) + LFE ch, ~448.00 kbps avg | ENG

Дата премьеры (мир): 10 августа 2018
Дата премьеры (РФ): 16 августа 2018, «WDSSPR»
Цифровой релиз: 1 ноября 2018, «Sony Pictures Home Entertainment»

Релиз:


[+] MediaInfo

Общее
Уникальный идентификатор                 : 199110298594841883710982591492197075692 (0x95CB3FA636B18E0D04A371E56DF24AEC)
Полное имя                               : F:OlLanDGroupSlender.Man.2018.BDRip(AVC).OlLanDGroup.mkv
Формат                                   : Matroska
Версия формата                           : Version 4 / Version 2
Размер файла                             : 1,77 Гбайт
Продолжительность                        : 1 ч. 33 м.
Общий поток                              : 2718 Кбит/сек
Название фильма                          : Slender.Man.2018   #TorpedoUK#
Дата кодирования                         : UTC 2018-11-04 14:23:18
Программа кодирования                    : mkvmerge v25.0.0 ('Prog Noir') 64-bit
Библиотека кодирования                   : libebml v1.3.6 + libmatroska v1.4.9
Обложка                                  : Yes
Attachments                              : cover_land.jpg / small_cover.jpg / small_cover_land.jpg / cover.jpg

Видео
Идентификатор                            : 1
Формат                                   : AVC
Формат/Информация                        : Advanced Video Codec
Профиль формата                          : High@L4.1
Параметр CABAC формата                   : Да
Параметр ReFrames формата                : 10 кадров
Идентификатор кодека                     : V_MPEG4/ISO/AVC
Продолжительность                        : 1 ч. 33 м.
Битрейт                                  : 1884 Кбит/сек
Ширина                                   : 1024 пикселя
Высота                                   : 428 пикселей
Соотношение сторон                       : 2,40:1
Режим частоты кадров                     : Постоянный
Частота кадров                           : 23,976 (24000/1001) кадра/сек
Цветовое пространство                    : YUV
Субдискретизация насыщенности            : 4:2:0
Битовая глубина                          : 8 бит
Тип развёртки                            : Прогрессивная
Бит/(Пиксели*Кадры)                      : 0.179
Размер потока                            : 1,23 Гбайт (69%)
Библиотека кодирования                   : x264 core 146 r2538 121396c
Настройки программы                      : cabac=1 / ref=10 / deblock=1:-3:-3 / analyse=0x3:0x113 / me=umh / subme=10 / psy=1 / psy_rd=0.99:0.04 / mixed_ref=1 / me_range=48 / chroma_me=1 / trellis=2 / 8x8dct=1 / cqm=0 / deadzone=21,11 / fast_pskip=1 / chroma_qp_offset=-3 / threads=6 / lookahead_threads=1 / sliced_threads=0 / nr=0 / decimate=1 / interlaced=0 / bluray_compat=0 / constrained_intra=0 / bframes=11 / b_pyramid=2 / b_adapt=2 / b_bias=0 / direct=3 / weightb=1 / open_gop=0 / weightp=2 / keyint=240 / keyint_min=23 / scenecut=40 / intra_refresh=0 / rc_lookahead=40 / rc=2pass / mbtree=0 / bitrate=1884 / ratetol=1.0 / qcomp=0.60 / qpmin=0 / qpmax=69 / qpstep=4 / cplxblur=20.0 / qblur=0.5 / vbv_maxrate=50000 / vbv_bufsize=62500 / nal_hrd=none / filler=0 / ip_ratio=1.40 / pb_ratio=1.30 / aq=1:1.00
Язык                                     : English
Default                                  : Да
Forced                                   : Нет

Аудио #1
Идентификатор                            : 2
Формат                                   : AC-3
Формат/Информация                        : Audio Coding 3
Расширение режима                        : CM (complete main)
Параметр Endianness формата              : Big
Идентификатор кодека                     : A_AC3
Продолжительность                        : 1 ч. 33 м.
Вид битрейта                             : Постоянный
Битрейт                                  : 384 Кбит/сек
Каналы                                   : 6 каналов
Расположение каналов                     : Front: L C R, Side: L R, LFE
Частота                                  : 48,0 КГц
Частота кадров                           : 31,250 кадров/сек (1536 spf)
Битовая глубина                          : 16 бит
Метод сжатия                             : С потерями
Размер потока                            : 256 Мбайт (14%)
Заголовок                                : DUB [iTunes]
Язык                                     : Russian
Default                                  : Да
Forced                                   : Нет

Аудио #2
Идентификатор                            : 3
Формат                                   : AC-3
Формат/Информация                        : Audio Coding 3
Расширение режима                        : CM (complete main)
Параметр Endianness формата              : Big
Идентификатор кодека                     : A_AC3
Продолжительность                        : 1 ч. 33 м.
Вид битрейта                             : Постоянный
Битрейт                                  : 448 Кбит/сек
Каналы                                   : 6 каналов
Расположение каналов                     : Front: L C R, Side: L R, LFE
Частота                                  : 48,0 КГц
Частота кадров                           : 31,250 кадров/сек (1536 spf)
Битовая глубина                          : 16 бит
Метод сжатия                             : С потерями
Размер потока                            : 299 Мбайт (16%)
Заголовок                                : [Original]
Язык                                     : English
Default                                  : Нет
Forced                                   : Нет

Текст #1
Идентификатор                            : 4
Формат                                   : UTF-8
Идентификатор кодека                     : S_TEXT/UTF8
Идентификатор кодека/Информация          : UTF-8 Plain Text
Продолжительность                        : 1 ч. 26 м.
Битрейт                                  : 61 бит/сек
Count of elements                        : 710
Размер потока                            : 39,0 Кбайт (0%)
Заголовок                                : Full
Язык                                     : Russian
Default                                  : Нет
Forced                                   : Нет

Текст #2
Идентификатор                            : 5
Формат                                   : UTF-8
Идентификатор кодека                     : S_TEXT/UTF8
Идентификатор кодека/Информация          : UTF-8 Plain Text
Продолжительность                        : 1 ч. 26 м.
Битрейт                                  : 32 бит/сек
Count of elements                        : 639
Размер потока                            : 20,2 Кбайт (0%)
Заголовок                                : Full
Язык                                     : English
Default                                  : Нет
Forced                                   : Нет

Текст #3
Идентификатор                            : 6
Формат                                   : UTF-8
Идентификатор кодека                     : S_TEXT/UTF8
Идентификатор кодека/Информация          : UTF-8 Plain Text
Продолжительность                        : 1 ч. 26 м.
Битрейт                                  : 37 бит/сек
Count of elements                        : 818
Размер потока                            : 23,7 Кбайт (0%)
Заголовок                                : SDH
Язык                                     : English
Default                                  : Нет
Forced                                   : Нет

Меню
00:00:00.000                             : en:Chapter 01
00:04:42.782                             : en:Chapter 02
00:12:02.680                             : en:Chapter 03
00:15:21.253                             : en:Chapter 04
00:22:07.284                             : en:Chapter 05
00:28:44.264                             : en:Chapter 06
00:32:14.599                             : en:Chapter 07
00:40:31.762                             : en:Chapter 08
00:45:50.789                             : en:Chapter 09
00:52:40.031                             : en:Chapter 10
00:55:34.789                             : en:Chapter 11
01:00:42.639                             : en:Chapter 12
01:05:19.457                             : en:Chapter 13
01:08:53.921                             : en:Chapter 14
01:15:11.340                             : en:Chapter 15
01:21:12.701                             : en:Chapter 16



Скриншоты:
[+] Всего файлов в раздаче - 1:
Slender.Man.2018.BDRip(AVC).OlLanDGroup.mkv1.77 GB

Текущая раздача:
ДатаКомментарии    РазмерПиры
2018-11-05 U Слендермен / Slender Man (2018) BDRip-AVC от OlLanDGroup | iTunes 1.77 GB ↑ 874 ↓ 294

Похожие раздачи по запросу - слендермен:
2018-11-05 U Слендермен / Slender Man (2018) BDRip 1080p | iTunes 7.71 GB ↑ 96 ↓ 103
2018-11-05 U Слендермен / Slender Man (2018) BDRip | iTunes 1.42 GB ↑ 134 ↓ 55
2018-11-05 U Слендермен / Slender Man (2018) BDRip 720p | iTunes 3.30 GB ↑ 502 ↓ 125

Отзывы
Зарегистрируйтесь чтобы добавить комментарий.
Обратная связь
Copyleft ©