↑↓Torrent.by
Поиск
Логин: Регистрация
Пароль: Восстановить пароль
Загрузка...

Без боли / Painless (2017) WEB-DLRip-AVC от OlLanDGroup | HDRezka Studio

Скачать bez-boli-painless-2017-web-dlrip-avc-ot-ollandgroup-hdrezka-studio.torrent
U Магнитная ссылка Размер: 1.67 GB Раздают: 255 Качают: 78 Добавлен: 2018-11-05 11:09:04
Без боли / Painless (2017) WEB-DLRip-AVC от OlLanDGroup | HDRezka Studio

Без боли / Painless
«If you can't feel pain, how do you know you're alive?»

Год выпуска: 2017
Страна: США
Производство: Blue Bus Productions, Ambrosino / Delmenico
Жанр:  Триллер, драма

Режиссёр: Джордан Хоровиц
В ролях: Джои Клейн, Эвалена Мари, Кип Гилмен, Паскаль Йен Пфистер, Томми Сокс, Nick Latrenta, Джошуа Копман, Eileen Paulino, Дэвид Уэйндел, Лино Танака

Перевод:  Профессиональный (многоголосый закадровый) | [HDRezka Studio]
Субтитры: Английские
Реклама: Отсутствует

Описание: Генри Лонг с самых малых лет не способен ощущать какую-либо физическую боль. Он не заметит ожога на коже от пролившегося кофе и не почувствует внутреннего кровотечения после падения с высоты. Он пытается найти лекарство от этого состояния с помощью своего врача, но когда тот оказывается неспособен предоставить Генри компоненты, которые ему нужны для своих собственных экспериментов, тот прибегает к работе с учёным, чьи мотивы не ограничиваются одним лишь желанием излечить необычного пациента.

Качество: WEB-DLRip-AVC | AMZN Version | Painless 2017 1080p AMZN WEB-DL DDP5 1 H 264-NTG
Продолжительность: 01:21:47

Формат: MKV
Видео кодек: MPEG-4 AVC
Аудио кодек: AC3
Видео: 1024x554 (1.85:1), 23,976 fps, x264 ~2 287 kbps avg, 0.168 bit/pixel
Аудио #1: 48 kHz, AC3 Dolby Digital, 2 (L,R) ch, ~192.00 kbps avg | RUS [HDRezka Studio]
Аудио #2: 48 kHz, AC3 Dolby Digital, 3/2 (L,C,R,l,r) + LFE ch, ~448.00 kbps avg | ENG

Дата премьеры (мир):  2 марта 2017

Релиз:


[+] MediaInfo

Общее
Уникальный идентификатор                 : 286207550268208165474256735275680745091 (0xD75191B2F87DE3F8D8F79B9D188B4683)
Полное имя                               : F:OlLanDGroupPainless.2017.WEB-DLRip(AVC).OlLanDGroup.mkv
Формат                                   : Matroska
Версия формата                           : Version 4 / Version 2
Размер файла                             : 1,67 Гбайт
Продолжительность                        : 1 ч. 21 м.
Общий поток                              : 2924 Кбит/сек
Название фильма                          : Painless.2017   #TorpedoUK#
Дата кодирования                         : UTC 2018-11-04 10:22:38
Программа кодирования                    : mkvmerge v25.0.0 ('Prog Noir') 64-bit
Библиотека кодирования                   : libebml v1.3.6 + libmatroska v1.4.9

Видео
Идентификатор                            : 1
Формат                                   : AVC
Формат/Информация                        : Advanced Video Codec
Профиль формата                          : High@L4.1
Параметр CABAC формата                   : Да
Параметр ReFrames формата                : 10 кадров
Идентификатор кодека                     : V_MPEG4/ISO/AVC
Продолжительность                        : 1 ч. 21 м.
Битрейт                                  : 2287 Кбит/сек
Ширина                                   : 1024 пикселя
Высота                                   : 554 пикселя
Соотношение сторон                       : 1,85:1
Режим частоты кадров                     : Постоянный
Частота кадров                           : 23,976 (24000/1001) кадра/сек
Цветовое пространство                    : YUV
Субдискретизация насыщенности            : 4:2:0
Битовая глубина                          : 8 бит
Тип развёртки                            : Прогрессивная
Бит/(Пиксели*Кадры)                      : 0.168
Размер потока                            : 1,30 Гбайт (78%)
Библиотека кодирования                   : x264 core 146 r2538 121396c
Настройки программы                      : cabac=1 / ref=10 / deblock=1:-2:-3 / analyse=0x3:0x113 / me=umh / subme=11 / psy=1 / psy_rd=0.96:0.06 / mixed_ref=1 / me_range=48 / chroma_me=1 / trellis=2 / 8x8dct=1 / cqm=0 / deadzone=21,11 / fast_pskip=1 / chroma_qp_offset=-3 / threads=6 / lookahead_threads=1 / sliced_threads=0 / nr=0 / decimate=1 / interlaced=0 / bluray_compat=0 / constrained_intra=0 / bframes=10 / b_pyramid=2 / b_adapt=2 / b_bias=0 / direct=3 / weightb=1 / open_gop=0 / weightp=2 / keyint=240 / keyint_min=23 / scenecut=40 / intra_refresh=0 / rc_lookahead=40 / rc=2pass / mbtree=0 / bitrate=2287 / ratetol=1.0 / qcomp=0.60 / qpmin=0 / qpmax=69 / qpstep=4 / cplxblur=20.0 / qblur=0.5 / vbv_maxrate=50000 / vbv_bufsize=62500 / nal_hrd=none / filler=0 / ip_ratio=1.40 / pb_ratio=1.30 / aq=1:1.00
Язык                                     : English
Default                                  : Да
Forced                                   : Нет

Аудио #1
Идентификатор                            : 2
Формат                                   : AC-3
Формат/Информация                        : Audio Coding 3
Расширение режима                        : CM (complete main)
Параметр Endianness формата              : Big
Идентификатор кодека                     : A_AC3
Продолжительность                        : 1 ч. 21 м.
Вид битрейта                             : Постоянный
Битрейт                                  : 192 Кбит/сек
Каналы                                   : 2 канала
Расположение каналов                     : Front: L R
Частота                                  : 48,0 КГц
Частота кадров                           : 31,250 кадров/сек (1536 spf)
Битовая глубина                          : 16 бит
Метод сжатия                             : С потерями
Размер потока                            : 112 Мбайт (7%)
Заголовок                                : MVO [HDRezka Studio]
Язык                                     : Russian
Default                                  : Да
Forced                                   : Нет

Аудио #2
Идентификатор                            : 3
Формат                                   : AC-3
Формат/Информация                        : Audio Coding 3
Расширение режима                        : CM (complete main)
Параметр Endianness формата              : Big
Идентификатор кодека                     : A_AC3
Продолжительность                        : 1 ч. 21 м.
Вид битрейта                             : Постоянный
Битрейт                                  : 448 Кбит/сек
Каналы                                   : 6 каналов
Расположение каналов                     : Front: L C R, Side: L R, LFE
Частота                                  : 48,0 КГц
Частота кадров                           : 31,250 кадров/сек (1536 spf)
Битовая глубина                          : 16 бит
Метод сжатия                             : С потерями
Размер потока                            : 262 Мбайт (15%)
Заголовок                                : [Original]
Язык                                     : English
Default                                  : Нет
Forced                                   : Нет

Текст #1
Идентификатор                            : 4
Формат                                   : UTF-8
Идентификатор кодека                     : S_TEXT/UTF8
Идентификатор кодека/Информация          : UTF-8 Plain Text
Продолжительность                        : 1 ч. 17 м.
Битрейт                                  : 45 бит/сек
Count of elements                        : 834
Размер потока                            : 25,8 Кбайт (0%)
Заголовок                                : Full
Язык                                     : English
Default                                  : Нет
Forced                                   : Нет

Текст #2
Идентификатор                            : 5
Формат                                   : UTF-8
Идентификатор кодека                     : S_TEXT/UTF8
Идентификатор кодека/Информация          : UTF-8 Plain Text
Продолжительность                        : 1 ч. 17 м.
Битрейт                                  : 49 бит/сек
Count of elements                        : 925
Размер потока                            : 28,4 Кбайт (0%)
Заголовок                                : SDH
Язык                                     : English
Default                                  : Нет
Forced                                   : Нет



Скриншоты:
[+] Всего файлов в раздаче - 1:
Painless.2017.WEB-DLRip(AVC).OlLanDGroup.mkv1.67 GB

Текущая раздача:
ДатаКомментарии    РазмерПиры
2018-11-05 U Без боли / Painless (2017) WEB-DLRip-AVC от OlLanDGroup | HDRezka Studio 1.67 GB ↑ 255 ↓ 78

Похожие раздачи по запросу - боли:
2018-11-05 U Без боли / Painless (2017) WEB-DL 1080p от OlLanDGroup | HDRezka Studio 2.46 GB ↑ 189 ↓ 47
2017-11-13 U Поляков Юрий - Фантомные боли (2017) FB2 1К1.68 MB ↑ 334 ↓ 8
2017-07-18 U Алексеев Антон - Благодарный позвоночник. Как навсегда избавить его от боли (2017) FB2 2.95 MB ↑ 601 ↓ 30
2017-07-05 U Шив Дуа - Как избавиться от боли в шее. Шейный спондилез (2009) FB2 2.96 MB ↑ 178 ↓ 20
2016-05-23 U Дикуль Валентин - 3 лучшие системы от боли в спине (2011) FB2 5.94 MB ↑ 497 ↓ 3
2013-11-20 U Быстро и без боли / Kurz und schmerzlos (1998) DVDRip 1.45 GB ↑ 19 ↓ 15

Отзывы
Зарегистрируйтесь чтобы добавить комментарий.
Обратная связь
Copyleft ©