↑↓Torrent.by
Поиск
Логин: Регистрация
Пароль: Восстановить пароль
Загрузка...

Солнце / Solis (2018) WEBRip 720p | L2

Скачать solnce-solis-2018-webrip-720p-l2.torrent
U Магнитная ссылка Размер: 2.02 GB Раздают: 121 Качают: 52 Добавлен: 2018-11-05 11:09:39
Солнце / Solis (2018) WEBRip 720p | L2

Название: Солнце
Оригинальное название: Solis
Год выхода: 2018
Жанр: Фантастика, драма
Режиссер: Карл Страти
В ролях: Стивен Огг, Элис Лоу
О фильме:
Очнувшись, Трой Холлоуэй осознает, что находится в спасательном шаттле, направляющемся в сторону солнца. Командир Робертс вместе с командой уже мчится ему на помощь, но ситуация всё равно остается ужасной. Уже не говоря о том, что после недавней потери сына Холлоуэй не особо жаждет спасения. Однако командир не позволяет ему спокойно ждать смерти и всячески помогает ему с помощью слабой радиосвязи, пытаясь вытащить его из этого ада.

Страна: Великобритания, Goldfinch Studios,Premiere Picture,Strathie Film
Продолжительность: 01:32:36
Перевод: Любительский (двухголосый закадровый) | HiWay Grope

Файл
Кодек: MPEG-4 AVC/x.264
Качество: WEBRip 720p
Видео: 1280x532, 23.976 fps, ~2923 kbps, 0.179 bit/pixel
Звук:
Аудио rus: AC3, 48 kHz, 2 ch, 192 Kbps
Субтитры: отсутствуют

Реклама: присутствует

Семпл

Релиз от: HiWay Grope


[+] MediaInfo:

General
Unique ID                                : 253362933698463605373378329591358348595 (0xBE9BED13A10F433EA01A46AA48C2DD33)
Complete name                            : D:Solis.2018.720p.WEBRip.HiWayGropeSolis.2018.720p.WEBRip.HiWayGrope.mkv
Format                                   : Matroska
Format version                           : Version 4 / Version 2
File size                                : 2.02 GiB
Duration                                 : 1 h 32 min
Overall bit rate mode                    : Variable
Overall bit rate                         : 3 116 kb/s
Encoded date                             : UTC 2018-11-04 11:45:43
Writing application                      : mkvmerge v17.0.0 ('Be Ur Friend') 64-bit
Writing library                          : libebml v1.3.5 + libmatroska v1.4.8

Video
ID                                       : 1
Format                                   : AVC
Format/Info                              : Advanced Video Codec
Format profile                           : High@L5
Format settings                          : CABAC / 4 Ref Frames
Format settings, CABAC                   : Yes
Format settings, RefFrames               : 4 frames
Codec ID                                 : V_MPEG4/ISO/AVC
Duration                                 : 1 h 32 min
Bit rate mode                            : Variable
Bit rate                                 : 2 923 kb/s
Maximum bit rate                         : 12.0 Mb/s
Width                                    : 1 280 pixels
Height                                   : 532 pixels
Display aspect ratio                     : 2.40:1
Frame rate mode                          : Constant
Frame rate                               : 23.976 (24000/1001) FPS
Standard                                 : NTSC
Color space                              : YUV
Chroma subsampling                       : 4:2:0
Bit depth                                : 8 bits
Scan type                                : Progressive
Bits/(Pixel*Frame)                       : 0.179
Stream size                              : 1.89 GiB (94%)
Language                                 : English
Default                                  : Yes
Forced                                   : No
Color range                              : Limited
Color primaries                          : BT.601 NTSC
Transfer characteristics                 : BT.601
Matrix coefficients                      : BT.601

Audio
ID                                       : 2
Format                                   : AC-3
Format/Info                              : Audio Coding 3
Codec ID                                 : A_AC3
Duration                                 : 1 h 32 min
Bit rate mode                            : Constant
Bit rate                                 : 192 kb/s
Channel(s)                               : 2 channels
Channel positions                        : Front: L R
Sampling rate                            : 48.0 kHz
Frame rate                               : 31.250 FPS (1536 SPF)
Bit depth                                : 16 bits
Compression mode                         : Lossy
Stream size                              : 127 MiB (6%)
Service kind                             : Complete Main
Default                                  : Yes
Forced                                   : No




Скриншоты:
[+] Всего файлов в раздаче - 1:
Solis.2018.720p.WEBRip.HiWayGrope.mkv2.02 GB

Текущая раздача:
ДатаКомментарии    РазмерПиры
2018-11-05 U Солнце / Solis (2018) WEBRip 720p | L2 2.02 GB ↑ 121 ↓ 52

Показать еще раздачи по запросу солнце:
2018-11-05 U Солнце / Solis (2018) WEBRip | L2 1.21 GB ↑ 211 ↓ 81
2018-07-30 U Полночное солнце / Midnight Sun (2018) BDRip от ExKinoRay | iTunes 1.42 GB ↑ 173 ↓ 22
2018-06-29 U Вспышки на Солнце / Solar Superstorms (2013) DVB | P1 1.03 GB ↑ 123 ↓ 16
2018-06-13 U Полночное солнце / Midnight Sun (2018) BDRip от MegaPeer | iTunes 1.42 GB ↑ 236 ↓ 20
2018-06-12 U Полночное солнце / Midnight Sun (2018) BDRip 720p | iTunes 3.57 GB ↑ 43 ↓ 21
2018-06-10 U Полночное солнце / Midnight Sun (2018) HDRip от Scarabey | iTunes 1.40 GB ↑ 77 ↓ 18
2018-06-09 U Полночное солнце / Midnight Sun (2018) BDRip 720p от MIXTV | iTunes 1.89 GB ↑ 94 ↓ 29

Отзывы
Зарегистрируйтесь чтобы добавить комментарий.
Обратная связь
Copyleft ©