↑↓Torrent.by
Поиск
Логин: Регистрация
Пароль: Восстановить пароль
Загрузка...

Судная ночь. Начало / The First Purge (2018) BDRip 720p от селезень | Лицензия

Скачать sudnaya-noch-nachalo-the-first-purge-2018-bdrip-720p-ot-selezen-licenziya.torrent
U Магнитная ссылка Размер: 5.46 GB Раздают: 109 Качают: 97 Добавлен: 2018-11-05 11:09:43
Судная ночь. Начало / The First Purge (2018) BDRip 720p от селезень | Лицензия

Название: Судная ночь. Начало
Оригинальное название: The First Purge
Год выхода: 2018
Жанр: Ужасы, фантастика, боевик, триллер
Режиссер: Герард МакМюррей
В ролях: И'лан Ноэль, Лекс Скотт Дэвис, Джойван Вейд, Магга, Патрик Дарро, Мариса Томей, Лорен Луна Велес, Кристен Солис, Ротими Пол, Мо

О фильме: Хотели бы вы жить в идеальном мире, где нет преступности, безработицы и войн? Единственная плата за такое счастливое будущее - это одна ночь абсолютного беззакония в году. Ночь, когда дозволено всё. Согласны поучаствовать в таком социальном эксперименте?

Страна: США
Студия: Blumhouse Productions, Perfect World Pictures, Platinum Dunes
Продолжительность: 01:37:25
Перевод: Дублированный | Лицензия

Качество: BDRip 720p
Видео: MPEG-4 AVC, 1280x536, 5298 Kbit/s, 23.976 fps
Звук:
Аудио #01: 48 kHz, DTS, 5.1, 768 Kbps | Лицензия | RUS |
Аудио #02: 48 kHz, AC3, 5.1, 448 Kbps | Лицензия | RUS |
Аудио #03: 48 kHz, DTS, 5.1, 1510 Kbps | Оригинал |  ENG |
Субтитры: Русские (Forced, full), английские (Full, SDH, SDH Colored)

Релиз:


[+] MI
General
Unique ID                   : 94607568564839954782787285799955365060 (0x472CC142DC70E10FD6B3F5BA45C47CC4)
Complete name               : D:Video111The.First.Purge.2018.BDRip.720p.selezen.mkv
Format                      : Matroska
Format version              : Version 4
File size                   : 5.46 GiB
Duration                    : 1 h 37 min
Overall bit rate            : 8 027 kb/s
Movie name                  : The First Purge (2018) селезень
Encoded date                : UTC 2018-11-04 22:54:25
Writing application         : mkvmerge v28.0.0 ('Voice In My Head') 64-bit
Writing library             : libebml v1.3.6 + libmatroska v1.4.9

Video
ID                          : 1
Format                      : AVC
Format/Info                 : Advanced Video Codec
Format profile              : High@L4.1
Format settings             : CABAC / 12 Ref Frames
Format settings, CABAC      : Yes
Format settings, ReFrames   : 12 frames
Codec ID                    : V_MPEG4/ISO/AVC
Duration                    : 1 h 37 min
Bit rate                    : 5 298 kb/s
Width                       : 1 280 pixels
Height                      : 536 pixels
Display aspect ratio        : 2.40:1
Frame rate mode             : Constant
Frame rate                  : 23.976 (24000/1001) FPS
Color space                 : YUV
Chroma subsampling          : 4:2:0
Bit depth                   : 8 bits
Scan type                   : Progressive
Bits/(Pixel*Frame)          : 0.322
Stream size                 : 3.61 GiB (66%)
Writing library             : x264 core 142 r2431+42 c69a006 tMod [8-bit@4:2:0 X86_64]
Encoding settings           : cabac=1 / ref=12 / deblock=1:-3:-3 / analyse=0x3:0x113 / me=umh / subme=10 / psy=1 / fade_compensate=0.00 / psy_rd=1.00:0.05 / mixed_ref=1 / me_range=32 / chroma_me=1 / trellis=2 / 8x8dct=1 / cqm=0 / deadzone=21,11 / fast_pskip=0 / chroma_qp_offset=-2 / threads=48 / lookahead_threads=4 / sliced_threads=0 / nr=0 / decimate=1 / interlaced=0 / bluray_compat=0 / constrained_intra=0 / fgo=0 / bframes=8 / b_pyramid=2 / b_adapt=2 / b_bias=0 / direct=3 / weightb=1 / open_gop=0 / weightp=2 / keyint=250 / keyint_min=23 / scenecut=40 / intra_refresh=0 / rc=crf / mbtree=0 / crf=17.8000 / qcomp=0.60 / qpmin=0:0:0 / qpmax=69:69:69 / qpstep=4 / ip_ratio=1.40 / pb_ratio=1.30 / aq=3:0.80 / aq-sensitivity=10.00 / aq-factor=1.00:1.00:1.00 / aq2=0 / aq3=0
Language                    : English
Default                     : Yes
Forced                      : No
Color range                 : Limited
Matrix coefficients         : BT.709

Audio #1
ID                          : 2
Format                      : DTS
Format/Info                 : Digital Theater Systems
Codec ID                    : A_DTS
Duration                    : 1 h 37 min
Bit rate mode               : Constant
Bit rate                    : 768 kb/s
Channel(s)                  : 6 channels
Channel layout              : C L R Ls Rs LFE
Sampling rate               : 48.0 kHz
Frame rate                  : 93.750 FPS (512 SPF)
Bit depth                   : 24 bits
Compression mode            : Lossy
Stream size                 : 535 MiB (10%)
Title                       : Dub [License]
Language                    : Russian
Default                     : Yes
Forced                      : Yes

Audio #2
ID                          : 3
Format                      : AC-3
Format/Info                 : Audio Coding 3
Commercial name             : Dolby Digital
Codec ID                    : A_AC3
Duration                    : 1 h 37 min
Bit rate mode               : Constant
Bit rate                    : 448 kb/s
Channel(s)                  : 6 channels
Channel layout              : L R C LFE Ls Rs
Sampling rate               : 48.0 kHz
Frame rate                  : 31.250 FPS (1536 SPF)
Bit depth                   : 16 bits
Compression mode            : Lossy
Stream size                 : 312 MiB (6%)
Title                       : Dub [License]
Language                    : Russian
Service kind                : Complete Main
Default                     : No
Forced                      : No

Audio #3
ID                          : 4
Format                      : DTS
Format/Info                 : Digital Theater Systems
Codec ID                    : A_DTS
Duration                    : 1 h 37 min
Bit rate mode               : Constant
Bit rate                    : 1 509 kb/s
Channel(s)                  : 6 channels
Channel layout              : C L R Ls Rs LFE
Sampling rate               : 48.0 kHz
Frame rate                  : 93.750 FPS (512 SPF)
Bit depth                   : 24 bits
Compression mode            : Lossy
Stream size                 : 1.03 GiB (19%)
Title                       : Original
Language                    : English
Default                     : No
Forced                      : No

Text #1
ID                          : 5
Format                      : UTF-8
Codec ID                    : S_TEXT/UTF8
Codec ID/Info               : UTF-8 Plain Text
Duration                    : 1 h 34 min
Bit rate                    : 0 b/s
Count of elements           : 14
Stream size                 : 418 Bytes (0%)
Title                       : Forced
Language                    : Russian
Default                     : Yes
Forced                      : Yes

Text #2
ID                          : 6
Format                      : UTF-8
Codec ID                    : S_TEXT/UTF8
Codec ID/Info               : UTF-8 Plain Text
Duration                    : 1 h 36 min
Bit rate                    : 74 b/s
Count of elements           : 1243
Stream size                 : 52.9 KiB (0%)
Title                       : Full
Language                    : Russian
Default                     : No
Forced                      : No

Text #3
ID                          : 7
Format                      : UTF-8
Codec ID                    : S_TEXT/UTF8
Codec ID/Info               : UTF-8 Plain Text
Duration                    : 1 h 30 min
Bit rate                    : 59 b/s
Count of elements           : 1244
Stream size                 : 39.4 KiB (0%)
Title                       : Full
Language                    : English
Default                     : No
Forced                      : No

Text #4
ID                          : 8
Format                      : UTF-8
Codec ID                    : S_TEXT/UTF8
Codec ID/Info               : UTF-8 Plain Text
Duration                    : 1 h 33 min
Bit rate                    : 69 b/s
Count of elements           : 1496
Stream size                 : 47.2 KiB (0%)
Title                       : SDH
Language                    : English
Default                     : No
Forced                      : No

Text #5
ID                          : 9
Format                      : UTF-8
Codec ID                    : S_TEXT/UTF8
Codec ID/Info               : UTF-8 Plain Text
Duration                    : 1 h 36 min
Bit rate                    : 138 b/s
Count of elements           : 1880
Stream size                 : 98.2 KiB (0%)
Title                       : SDH Colored
Language                    : English
Default                     : No
Forced                      : No

Menu
00:00:00.000                : en:Chapter 1
00:06:25.635                : en:Chapter 2
00:11:59.802                : en:Chapter 3
00:16:18.769                : en:Chapter 4
00:21:18.110                : en:Chapter 5
00:25:56.388                : en:Chapter 6
00:30:54.144                : en:Chapter 7
00:35:31.212                : en:Chapter 8
00:38:41.110                : en:Chapter 9
00:43:02.455                : en:Chapter 10
00:48:34.411                : en:Chapter 11
00:53:35.087                : en:Chapter 12
00:55:59.565                : en:Chapter 13
00:59:13.049                : en:Chapter 14
01:05:25.713                : en:Chapter 15
01:09:31.793                : en:Chapter 16
01:13:23.733                : en:Chapter 17
01:19:47.533                : en:Chapter 18
01:24:50.043                : en:Chapter 19
01:29:54.931                : en:Chapter 20



Скриншоты:
[+] Всего файлов в раздаче - 1:
The.First.Purge.2018.BDRip.720p.selezen.mkv5.46 GB

Текущая раздача:
ДатаКомментарии    РазмерПиры
2018-11-05 U Судная ночь. Начало / The First Purge (2018) BDRip 720p от селезень | Лицензия 5.46 GB ↑ 109 ↓ 97

Показать еще раздачи по запросу судная:
2018-11-06 U Судная ночь. Начало / The First Purge (2018) BDRip-AVC от HELLYWOOD | Лицензия 1.46 GB ↑ 44 ↓ 13
2018-11-05 U Судная ночь. Начало / The First Purge (2018) BDRip-AVC от HELLYWOOD | Лицензия 2.18 GB ↑ 128 ↓ 60
2018-11-05 U Судная ночь. Начало / The First Purge (2018) BDRip от MegaPeer | Лицензия 1.46 GB ↑ 182 ↓ 57
2018-09-29 U Судная ночь. Начало / The First Purge (2018) HDRip от Scarabey | iTunes 1.40 GB ↑ 195 ↓ 31
2018-09-28 U Судная ночь. Начало / The First Purge (2018) BDRip | iTunes 743.62 MB ↑ 130 ↓ 31
2018-09-27 U Судная ночь. Начало / The First Purge (2018) BDRemux 1080p от TeamHD | iTunes 23.78 GB ↑ 63 ↓ 50
2018-09-27 U Судная ночь. Начало / The First Purge (2018) BDRip-AVC от HELLYWOOD | iTunes 1.42 GB ↑ 117 ↓ 50

Отзывы
Зарегистрируйтесь чтобы добавить комментарий.
Обратная связь
Copyleft ©