↑↓Torrent.by
Поиск
Логин: Регистрация
Пароль: Восстановить пароль
Загрузка...

Мегалодон / Megalodon (2018) WEBRip | L2

Скачать megalodon-2018-webrip-l2.torrent
U Магнитная ссылка Размер: 1.24 GB Раздают: 107 Качают: 28 Добавлен: 2018-11-05 11:09:47
Мегалодон / Megalodon (2018) WEBRip | L2

Название: Мегалодон
Оригинальное название: Megalodon
Год выхода: 2018
Жанр: Ужасы, фантастика, боевик, триллер, приключения
Режиссер: Джеймс Томас
В ролях: Майкл Мэдсен, Доминик Паке, Иго Микитас, Айми Столте, Скотт С. Роу, Себастьен Шарман, Полина Лоран

О фильме:
Морские пехотинцы обнаружили неизвестную подводную лодку. После погружения они столкнулись лицом к лицу с гигантской акулой. Чтобы защитить свой экипаж, им придется воспользоваться лишь тем, что есть на борту.

Страна: США
Продолжительность: 01:28:52
Перевод: Любительский (двухголосый закадровый) | HiWay Grope

Файл
Кодек: XviD
Качество: WEBRip
Видео: 720x400, 23.976 fps, ~1800 kbps, 0.26 bit/pixel
Звук:
Аудио rus: AC3, 48 kHz, 2 ch, 192 Kbps
Субтитры: отсутствуют

Реклама: присутствует

Семпл

Релиз от: HiWay Grope


[+] MediaInfo:

General
Complete name                            : D:Megalodon.2018.WEBRip.HiWayGropeMegalodon.2018.WEBRip.HiWayGrope.avi
Format                                   : AVI
Format/Info                              : Audio Video Interleave
Format profile                           : OpenDML
File size                                : 1.24 GiB
Duration                                 : 1 h 28 min
Overall bit rate                         : 2 000 kb/s
Writing application                      : Lavf57.71.100

Video
ID                                       : 0
Format                                   : MPEG-4 Visual
Format profile                           : Advanced Simple@L5
Format settings                          : BVOP1
Format settings, BVOP                    : 1
Format settings, QPel                    : No
Format settings, GMC                     : No warppoints
Format settings, Matrix                  : Default (H.263)
Codec ID                                 : XVID
Codec ID/Hint                            : XviD
Duration                                 : 1 h 28 min
Bit rate                                 : 1 795 kb/s
Width                                    : 720 pixels
Height                                   : 400 pixels
Display aspect ratio                     : 16:9
Frame rate                               : 23.976 (24000/1001) FPS
Color space                              : YUV
Chroma subsampling                       : 4:2:0
Bit depth                                : 8 bits
Scan type                                : Progressive
Compression mode                         : Lossy
Bits/(Pixel*Frame)                       : 0.260
Stream size                              : 1.11 GiB (90%)
Writing library                          : XviD 67

Audio
ID                                       : 1
Format                                   : AC-3
Format/Info                              : Audio Coding 3
Codec ID                                 : 2000
Duration                                 : 1 h 28 min
Bit rate mode                            : Constant
Bit rate                                 : 192 kb/s
Channel(s)                               : 2 channels
Channel positions                        : Front: L R
Sampling rate                            : 48.0 kHz
Frame rate                               : 31.250 FPS (1536 SPF)
Bit depth                                : 16 bits
Compression mode                         : Lossy
Stream size                              : 122 MiB (10%)
Alignment                                : Aligned on interleaves
Interleave, duration                     : 32  ms (0.77 video frame)
Service kind                             : Complete Main




Скриншоты:
[+] Всего файлов в раздаче - 1:
Megalodon.2018.WEBRip.HiWayGrope.avi1.24 GB

Отзывы
Зарегистрируйтесь чтобы добавить комментарий.
Обратная связь
Copyleft ©