↑↓Torrent.by
Поиск
Логин: Регистрация
Пароль: Восстановить пароль
Загрузка...

Солнце / Solis (2018) WEBRip | L2

Скачать solnce-solis-2018-webrip-l2.torrent
U Магнитная ссылка Размер: 1.21 GB Раздают: 226 Качают: 81 Добавлен: 2018-11-05 11:10:00
Солнце / Solis (2018) WEBRip | L2

Название: Солнце
Оригинальное название: Solis
Год выхода: 2018
Жанр: Фантастика, драма
Режиссер: Карл Страти
В ролях: Стивен Огг, Элис Лоу
О фильме:
Очнувшись, Трой Холлоуэй осознает, что находится в спасательном шаттле, направляющемся в сторону солнца. Командир Робертс вместе с командой уже мчится ему на помощь, но ситуация всё равно остается ужасной. Уже не говоря о том, что после недавней потери сына Холлоуэй не особо жаждет спасения. Однако командир не позволяет ему спокойно ждать смерти и всячески помогает ему с помощью слабой радиосвязи, пытаясь вытащить его из этого ада.

Страна: Великобритания, Goldfinch Studios,Premiere Picture,Strathie Film
Продолжительность: 01:32:36
Перевод: Любительский (двухголосый закадровый) | HiWay Grope

Файл
Кодек: XviD
Качество: WEBRip
Видео: 720x304, 23.976 fps, ~1672 kbps, 0.32 bit/pixel
Звук:
Аудио rus: AC3, 48 kHz, 2 ch, 192 Kbps
Субтитры: отсутствуют

Реклама: присутствует

Семпл

Релиз от: HiWay Grope


[+] MediaInfo:

General
Complete name                            : D:Solis.2018.WEBRip.HiWayGropeSolis.2018.WEBRip.HiWayGrope.avi
Format                                   : AVI
Format/Info                              : Audio Video Interleave
Format profile                           : OpenDML
File size                                : 1.21 GiB
Duration                                 : 1 h 32 min
Overall bit rate                         : 1 871 kb/s
Writing application                      : Lavf57.71.100

Video
ID                                       : 0
Format                                   : MPEG-4 Visual
Format profile                           : Simple@L5
Format settings                          : BVOP1
Format settings, BVOP                    : 1
Format settings, QPel                    : No
Format settings, GMC                     : No warppoints
Format settings, Matrix                  : Default (MPEG)
Codec ID                                 : XVID
Codec ID/Hint                            : XviD
Duration                                 : 1 h 32 min
Bit rate                                 : 1 666 kb/s
Width                                    : 720 pixels
Height                                   : 304 pixels
Display aspect ratio                     : 2.40:1
Frame rate                               : 23.976 (24000/1001) FPS
Color space                              : YUV
Chroma subsampling                       : 4:2:0
Bit depth                                : 8 bits
Scan type                                : Progressive
Compression mode                         : Lossy
Bits/(Pixel*Frame)                       : 0.317
Stream size                              : 1.08 GiB (89%)
Writing library                          : XviD 67

Audio
ID                                       : 1
Format                                   : AC-3
Format/Info                              : Audio Coding 3
Codec ID                                 : 2000
Duration                                 : 1 h 32 min
Bit rate mode                            : Constant
Bit rate                                 : 192 kb/s
Channel(s)                               : 2 channels
Channel positions                        : Front: L R
Sampling rate                            : 48.0 kHz
Frame rate                               : 31.250 FPS (1536 SPF)
Bit depth                                : 16 bits
Compression mode                         : Lossy
Stream size                              : 127 MiB (10%)
Alignment                                : Aligned on interleaves
Interleave, duration                     : 32  ms (0.77 video frame)
Service kind                             : Complete Main




Скриншоты:
[+] Всего файлов в раздаче - 1:
Solis.2018.WEBRip.HiWayGrope.avi1.21 GB

Текущая раздача:
ДатаКомментарии    РазмерПиры
2018-11-05 U Солнце / Solis (2018) WEBRip | L2 1.21 GB ↑ 226 ↓ 81

Показать еще раздачи по запросу солнце:
2019-01-06 U Солнце / Solis (2018) BDRemux 1080р | L2 24.27 GB ↑ 61 ↓ 21
2018-11-29 U Медное солнце [01-02 из 02] (2018) WEBRip-AVC от Files-x 3.98 GB ↑ 116 ↓ 74
2018-11-28 U Медное солнце [01-02 из 02] (2018) WEBRip-AVC от Files-x 3.98 GB ↑ 196 ↓ 111
2018-11-28 U Медное солнце [01-02 из 02] (2018) WEBRip от GeneralFilm 3.09 GB ↑ 188 ↓ 117
2018-11-28 U Медное солнце [01-02 из 02] (2018) WEBRip 1080p от MediaClub 11.20 GB ↑ 125 ↓ 117
2018-11-28 U Медное солнце [01-02 из 02] (2018) WEBRip от Files-x 3.09 GB ↑ 154 ↓ 81
2018-11-28 U Медное солнце [01-02 из 02] (2018) SATRip 3.35 GB ↑ 556 ↓ 361

Отзывы
Зарегистрируйтесь чтобы добавить комментарий.
Обратная связь
Copyleft ©