↑↓Torrent.by
Поиск
Логин: Регистрация
Пароль: Восстановить пароль
Загрузка...

Операция «Финал» / Operation Finale (2018) WEB-DLRip-AVC от OlLanDGroup | D

Скачать operaciya-final-operation-finale-2018-web-dlrip-avc-ot-ollandgroup-d.torrent
U Магнитная ссылка Размер: 2.65 GB Раздают: 202 Качают: 67 Добавлен: 2018-11-05 11:10:06
Операция «Финал» / Operation Finale (2018) WEB-DLRip-AVC от OlLanDGroup | D

Операция «Финал» / Operation Finale
«After World War II, Hitler's deadliest lieutenant escaped»

Год выпуска: 2018
Страна: США
Производство: Automatik Entertainment, Metro-Goldwyn-Mayer (MGM)
Жанр:  Триллер, драма, биография, история

Режиссёр: Крис Вайц
В ролях: Оскар Айзек, Бен Кингсли, Мелани Лоран, Лайор Раз, Ник Кролл, Майкл Аронов, Охад Кноллер, Грег Хилл, Торбен Либрехт

Перевод: Дублированный | [Пифагор]
Субтитры: Русские (форс., полные), Английские (форс., полные)
Реклама: Отсутствует

Описание: Через 15 лет после окончания Второй мировой войны создаётся команда спецагентов, чтобы выследить Адольфа Эйхмана — печально известного сотрудника гестапо, отвечавшего за «окончательное решение еврейского вопроса».

Качество: WEB-DLRip-AVC | |
Продолжительность: 02:03:36

Формат: MKV
Видео кодек: MPEG-4 AVC
Аудио кодек: AC3
Видео: 1024x552 (1.85:1), 23,976 fps, x264 ~2 178 kbps avg, 0.161 bit/pixel
Аудио #1: 48 kHz, AC3 Dolby Digital, 3/2 (L,C,R,l,r) + LFE ch, ~448.00 kbps avg | RUS (Пифагор)
Аудио #2: 48 kHz, AC3 Dolby Digital, 3/2 (L,C,R,l,r) + LFE ch, ~448.00 kbps avg | ENG

Дата премьеры (мир): 29 августа 2018
Дата премьеры (РФ):
Цифровой релиз:

Релиз: Rip by:


[+] MediaInfo

Общее
Уникальный идентификатор                 : 320766996295621840257780076048554264051 (0xF15179F1012F3B9E251AC091E94205F3)
Полное имя                               : F:OlLanDGroupOperation.Finale.2018.WEB-DLRip(AVC).OlLanDGroup.mkv
Формат                                   : Matroska
Версия формата                           : Version 4 / Version 2
Размер файла                             : 2,65 Гбайт
Продолжительность                        : 2 ч. 3 м.
Общий поток                              : 3075 Кбит/сек
Название фильма                          : Operation.Finale.2018   #TorpedoUK#
Дата кодирования                         : UTC 2018-11-04 09:04:12
Программа кодирования                    : mkvmerge v25.0.0 ('Prog Noir') 64-bit
Библиотека кодирования                   : libebml v1.3.6 + libmatroska v1.4.9

Видео
Идентификатор                            : 1
Формат                                   : AVC
Формат/Информация                        : Advanced Video Codec
Профиль формата                          : High@L4.1
Параметр CABAC формата                   : Да
Параметр ReFrames формата                : 10 кадров
Идентификатор кодека                     : V_MPEG4/ISO/AVC
Продолжительность                        : 2 ч. 3 м.
Битрейт                                  : 2178 Кбит/сек
Ширина                                   : 1024 пикселя
Высота                                   : 552 пикселя
Соотношение сторон                       : 1,85:1
Режим частоты кадров                     : Постоянный
Частота кадров                           : 23,976 (24000/1001) кадра/сек
Цветовое пространство                    : YUV
Субдискретизация насыщенности            : 4:2:0
Битовая глубина                          : 8 бит
Тип развёртки                            : Прогрессивная
Бит/(Пиксели*Кадры)                      : 0.161
Размер потока                            : 1,88 Гбайт (71%)
Библиотека кодирования                   : x264 core 146 r2538 121396c
Настройки программы                      : cabac=1 / ref=10 / deblock=1:-2:-3 / analyse=0x3:0x113 / me=umh / subme=11 / psy=1 / psy_rd=0.95:0.08 / mixed_ref=1 / me_range=48 / chroma_me=1 / trellis=2 / 8x8dct=1 / cqm=0 / deadzone=21,11 / fast_pskip=1 / chroma_qp_offset=-3 / threads=6 / lookahead_threads=1 / sliced_threads=0 / nr=0 / decimate=1 / interlaced=0 / bluray_compat=0 / constrained_intra=0 / bframes=10 / b_pyramid=2 / b_adapt=2 / b_bias=0 / direct=3 / weightb=1 / open_gop=0 / weightp=2 / keyint=240 / keyint_min=23 / scenecut=40 / intra_refresh=0 / rc_lookahead=40 / rc=2pass / mbtree=0 / bitrate=2178 / ratetol=1.0 / qcomp=0.60 / qpmin=0 / qpmax=69 / qpstep=4 / cplxblur=20.0 / qblur=0.5 / vbv_maxrate=50000 / vbv_bufsize=62500 / nal_hrd=none / filler=0 / ip_ratio=1.40 / pb_ratio=1.30 / aq=1:1.00
Язык                                     : English
Default                                  : Да
Forced                                   : Нет

Аудио #1
Идентификатор                            : 2
Формат                                   : AC-3
Формат/Информация                        : Audio Coding 3
Расширение режима                        : CM (complete main)
Параметр Endianness формата              : Big
Идентификатор кодека                     : A_AC3
Продолжительность                        : 2 ч. 3 м.
Вид битрейта                             : Постоянный
Битрейт                                  : 448 Кбит/сек
Каналы                                   : 6 каналов
Расположение каналов                     : Front: L C R, Side: L R, LFE
Частота                                  : 48,0 КГц
Частота кадров                           : 31,250 кадров/сек (1536 spf)
Битовая глубина                          : 16 бит
Метод сжатия                             : С потерями
Размер потока                            : 396 Мбайт (15%)
Заголовок                                : DUB [Pifagor]
Язык                                     : Russian
Default                                  : Да
Forced                                   : Нет

Аудио #2
Идентификатор                            : 3
Формат                                   : AC-3
Формат/Информация                        : Audio Coding 3
Расширение режима                        : CM (complete main)
Параметр Endianness формата              : Big
Идентификатор кодека                     : A_AC3
Продолжительность                        : 2 ч. 3 м.
Вид битрейта                             : Постоянный
Битрейт                                  : 448 Кбит/сек
Каналы                                   : 6 каналов
Расположение каналов                     : Front: L C R, Side: L R, LFE
Частота                                  : 48,0 КГц
Частота кадров                           : 31,250 кадров/сек (1536 spf)
Битовая глубина                          : 16 бит
Метод сжатия                             : С потерями
Размер потока                            : 396 Мбайт (15%)
Заголовок                                : [Original]
Язык                                     : English
Default                                  : Нет
Forced                                   : Нет

Текст #1
Идентификатор                            : 4
Формат                                   : UTF-8
Идентификатор кодека                     : S_TEXT/UTF8
Идентификатор кодека/Информация          : UTF-8 Plain Text
Продолжительность                        : 2 ч. 2 м.
Битрейт                                  : 4 бит/сек
Count of elements                        : 94
Размер потока                            : 4,28 Кбайт (0%)
Заголовок                                : Forced
Язык                                     : Russian
Default                                  : Да
Forced                                   : Нет

Текст #2
Идентификатор                            : 5
Формат                                   : UTF-8
Идентификатор кодека                     : S_TEXT/UTF8
Идентификатор кодека/Информация          : UTF-8 Plain Text
Продолжительность                        : 2 ч. 2 м.
Битрейт                                  : 70 бит/сек
Count of elements                        : 1334
Размер потока                            : 62,8 Кбайт (0%)
Заголовок                                : Full
Язык                                     : Russian
Default                                  : Нет
Forced                                   : Нет

Текст #3
Идентификатор                            : 6
Формат                                   : UTF-8
Идентификатор кодека                     : S_TEXT/UTF8
Идентификатор кодека/Информация          : UTF-8 Plain Text
Продолжительность                        : 1 ч. 11 м.
Битрейт                                  : 1 бит/сек
Count of elements                        : 26
Размер потока                            : 930 байт (0%)
Заголовок                                : Forced
Язык                                     : English
Default                                  : Нет
Forced                                   : Нет

Текст #4
Идентификатор                            : 7
Формат                                   : UTF-8
Идентификатор кодека                     : S_TEXT/UTF8
Идентификатор кодека/Информация          : UTF-8 Plain Text
Продолжительность                        : 1 ч. 57 м.
Битрейт                                  : 58 бит/сек
Count of elements                        : 1491
Размер потока                            : 50,5 Кбайт (0%)
Заголовок                                : Full
Язык                                     : English
Default                                  : Нет
Forced                                   : Нет



Скриншоты:
[+] Всего файлов в раздаче - 1:
Operation.Finale.2018.WEB-DLRip(AVC).OlLanDGroup.mkv2.65 GB

Текущая раздача:
ДатаКомментарии    РазмерПиры
2018-11-05 U Операция «Финал» / Operation Finale (2018) WEB-DLRip-AVC от OlLanDGroup | D 2.65 GB ↑ 202 ↓ 67

Показать еще раздачи по запросу операция:
2018-10-20 U Операция «Шаровая молния» / Entebbe (2018) BDRip от MegaPeer | iTunes 1.41 GB ↑ 161 ↓ 18
2018-10-14 U Операция «Сатана» [01-08 из 08] (2018) HDTVRip 1080p 14.52 GB ↑ 150 ↓ 180
2018-10-12 U Операция «Сатана» [01-08 из 08] (2018) WEB-DLRip от Files-x 4.74 GB ↑ 148 ↓ 97
2018-10-12 U Операция «Сатана» [01-08 из 08] (2018) HDTV 1080i от GeneralFilm 16.28 GB ↑ 226 ↓ 424
2018-10-12 U Операция «Сатана» [01-07 из 08] (2018) WEB-DLRip от Files-x 1К4.16 GB ↑ 60 ↓ 33
2018-10-12 U Операция «Сатана» [01-08 из 08] (2018) HDTVRip 720p от GeneralFilm 10.13 GB ↑ 136 ↓ 90
2018-10-12 U Операция «Сатана» [01-08 из 08] (2018) HDTVRip от GeneralFilm 5.40 GB ↑ 241 ↓ 285

Отзывы
Зарегистрируйтесь чтобы добавить комментарий.
Обратная связь
Copyleft ©