↑↓Torrent.by
Поиск
Логин: Регистрация
Пароль: Восстановить пароль
Загрузка...

Слендермен / Slender Man (2018) BDRip | iTunes

Скачать slendermen-slender-man-2018-bdrip-itunes.torrent
U Магнитная ссылка Размер: 1.42 GB Раздают: 134 Качают: 55 Добавлен: 2018-11-05 12:34:48
Слендермен / Slender Man (2018) BDRip | iTunes

Слендермен / Slender Man

Страна: США
Производство: Madhouse Entertainment, Mythology Entertainment
Год выпуска: 2018
Жанр:  ужасы, триллер, детектив
Продолжительность: 01:33:09

Режиссер: Сильвен Уайт
Авторы сценария: Дэвид Бирк, Виктор Сёрдж

В ролях: Джои Кинг, Джулия Голден Теллес, Жасмин Сабино, Анналиса Бассо, Алекс Фитцалан, Тейлор Ричардсон, Хавьер Ботет, Джессика Бланк

Описание: Слендермен — это худощавая безликая фигура в похоронном костюме. Ходят слухи, что если его вызвать, то он заберёт тебя в другой мир. Четыре подружки-старшеклассницы от нечего делать смотрят в интернете видео о том, как вызвать Слендермена, и через неделю одна из них пропадает без следа...

Перевод: Профессиональный (полное дублирование) | iTunes
Субтитры: отдельными файлами | русские, английские

Качество: BDRip | исходник Blu-Ray (USA) - Slender.Man.2018.BluRay.1080p.AVC.DTS-HD.MA5.1-CHDBits
Формат: AVI
Видео кодек: XviD
Аудио кодек: АС3
Видео: 720x304 (2.35:1), 23.976 fps, XviD build 67 ~1 335 kbps avg
Аудио №1: 48.0 kHz, AC3 Dolby Digital, 3/2 (L,C,R,l,r) + LFE ch, ~384 kbps | RUS
Аудио №2: 48.0 kHz, AC3 Dolby Digital, 3/2 (L,C,R,l,r) + LFE ch, ~448 kbps | ENG
Формат субтитров: *SRT

Дата премьеры (мир): 10 августа 2018
Дата премьеры (РФ): 16 августа 2018, «WDSSPR»

Релиз от: ylnian


[+] Media Info
General
Полное имя                               : Slender.Man.2018.BDRip-ylnianSlender.Man.2018.BDRip-ylnian.avi
Формат                                   : AVI
Формат/Информация                        : Audio Video Interleave
Размер файла                             : 1,42 Гбайт
Продолжительность                        : 1 ч. 33 м.
Общий поток                              : 2181 Кбит/сек
Программа кодирования                    : VirtualDubMod 1.5.10.3 | (build 2550/release)
Библиотека кодирования                   : VirtualDubMod build 2550/release

Видео
Идентификатор                            : 0
Формат                                   : MPEG-4 Visual
Профиль формата                          : Advanced Simple@L5
Настройки формата                        : BVOP1 / Custom Matrix
Параметр BVOP формата                    : 1
Параметр QPel формата                    : Нет
Параметр GMC формата                     : Без точки перехода
Параметр матрицы формата                 : Выборочная
Идентификатор кодека                     : XVID
Идентификатор кодека/Подсказка           : XviD
Продолжительность                        : 1 ч. 33 м.
Битрейт                                  : 1335 Кбит/сек
Ширина                                   : 720 пикселей
Высота                                   : 304 пикселя
Соотношение сторон                       : 2,35:1
Частота кадров                           : 23,976 (24000/1001) кадра/сек
Цветовое пространство                    : YUV
Субдискретизация насыщенности            : 4:2:0
Битовая глубина                          : 8 бит
Тип развёртки                            : Прогрессивная
Метод сжатия                             : С потерями
Бит/(Пиксели*Кадры)                      : 0.254
Размер потока                            : 890 Мбайт (61%)
Библиотека кодирования                   : XviD 67

Аудио #1
Идентификатор                            : 1
Формат                                   : AC-3
Формат/Информация                        : Audio Coding 3
Коммерческое название                    : Dolby Digital
Идентификатор кодека                     : 2000
Продолжительность                        : 1 ч. 33 м.
Вид битрейта                             : Постоянный
Битрейт                                  : 384 Кбит/сек
Каналы                                   : 6 каналов
Channel layout                           : L R C LFE Ls Rs
Частота                                  : 48,0 КГц
Частота кадров                           : 31,250 кадров/сек (1536 SPF)
Битовая глубина                          : 16 бит
Метод сжатия                             : С потерями
Размер потока                            : 256 Мбайт (18%)
Выравнивание                             : Разделение по промежуткам
Продолжительность промежутка             : 42  мс. (1,00 видеокадр)
Время предзагрузки промежутка            : 500  мс.
Заголовок                                : DUB - iTunes

Аудио #2
Идентификатор                            : 2
Формат                                   : AC-3
Формат/Информация                        : Audio Coding 3
Коммерческое название                    : Dolby Digital
Идентификатор кодека                     : 2000
Продолжительность                        : 1 ч. 33 м.
Вид битрейта                             : Постоянный
Битрейт                                  : 448 Кбит/сек
Каналы                                   : 6 каналов
Channel layout                           : L R C LFE Ls Rs
Частота                                  : 48,0 КГц
Частота кадров                           : 31,250 кадров/сек (1536 SPF)
Битовая глубина                          : 16 бит
Метод сжатия                             : С потерями
Размер потока                            : 299 Мбайт (21%)
Выравнивание                             : Разделение по промежуткам
Продолжительность промежутка             : 42  мс. (1,00 видеокадр)
Время предзагрузки промежутка            : 500  мс.
Заголовок                                : ENG

Общее
Полное имя                               : Slender.Man.2018.BDRip-ylnianSlender.Man.2018.BDRip-ylnian.rus.srt
Размер файла                             : 66,6 Кбайт

Общее
Полное имя                               : Slender.Man.2018.BDRip-ylnianSlender.Man.2018.BDRip-ylnian_eng.srt
Формат                                   : SubRip
Размер файла                             : 45,1 Кбайт
Текст
Формат                                   : SubRip
Метод сжатия                             : Без потерь



Скриншоты:
[+] Всего файлов в раздаче - 3:
Slender.Man.2018.BDRip-ylnian.avi1.42 GB
Slender.Man.2018.BDRip-ylnian.rus.srt66.60 kB
Slender.Man.2018.BDRip-ylnian_eng.srt45.07 kB

Текущая раздача:
ДатаКомментарии    РазмерПиры
2018-11-05 U Слендермен / Slender Man (2018) BDRip | iTunes 1.42 GB ↑ 134 ↓ 55

Похожие раздачи по запросу - слендермен:
2018-11-05 U Слендермен / Slender Man (2018) BDRip 1080p | iTunes 7.71 GB ↑ 96 ↓ 103
2018-11-05 U Слендермен / Slender Man (2018) BDRip-AVC от OlLanDGroup | iTunes 1.77 GB ↑ 874 ↓ 294
2018-11-05 U Слендермен / Slender Man (2018) BDRip 720p | iTunes 3.30 GB ↑ 502 ↓ 125

Отзывы
Зарегистрируйтесь чтобы добавить комментарий.
Обратная связь
Copyleft ©