↑↓Torrent.by
Поиск
Логин: Регистрация
Пароль: Восстановить пароль
Загрузка...

Галвестон / Galveston (2018) WEB-DL 1080p | iTunes

Скачать galveston-2018-web-dl-1080p-itunes.torrent
U Магнитная ссылка Размер: 3.49 GB Раздают: 481 Качают: 127 Добавлен: 2018-11-06 04:59:12
Галвестон / Galveston (2018) WEB-DL 1080p | iTunes

Название: Галвестон
Оригинальное название: Galveston
Год выхода: 2018
Жанр: Боевик, триллер, драма, криминал
Режиссер: Мелани Лоран
В ролях: Лили Рейнхарт, Элль Фэннинг, Бен Фостер, Мария Вальверде, Бо Бриджес, Роберт Арамайо, Эдеперо Одуйе, Тинсли Прайс, Эннистон Прайс, Хайди Левандовски

О фильме:
История о бывшем приспешнике мафиози Рое Кэди, который имел неосторожность перейти дорогу своему влиятельному боссу. Став мишенью наёмных убийц, Кэди пускается в бега и по стечению обстоятельств берёт ответственность за жизнь ещё и своей неожиданной спутницы — совсем молоденькой проститутки.

Страна: США
Студия: Jean Doumanian Productions, Low Spark Films
Продолжительность: 01:33:21
Перевод:
                 • Профессиональный (полное дублирование) | iTunes

Файл
Качество: WEB-DL 1080p
Формат: MKV
Кодек: MPEG-4 AVC
Видео: 1920x800 (2,40:1), 23,976 fps, MPEG-4 AVC ~ 4581 Kbps avg, 0.124 bit/pixel
Аудио: AC3, 48 kHz, 6 ch, ~384.00 kbps avg | русский | Профессиональный (полное дублирование) | iTunes
Аудио: AC3, 48 kHz, 6 ch, ~384.00 kbps avg | английский | Оригинал

Субтитры: Отсутствуют


[+] Инфо-файл
Общее
Уникальный идентификатор                 : 68756962110344732343960497143471981848 (0x33BA1BF5EE0845267A0DA91684E8C518)
Полное имя                               : GALVESTON (2018) WEB-DL 1080p.mkv
Формат                                   : Matroska
Версия формата                           : Version 4 / Version 2
Размер файла                             : 3,49 Гбайт
Продолжительность                        : 1 ч. 33 м.
Общий поток                              : 5346 Кбит/сек
Название фильма                          : Галвестон (2018)
Дата кодирования                         : UTC 2018-11-05 15:09:18
Программа кодирования                    : mkvmerge v27.0.0 ('Metropolis') 64-bit
Библиотека кодирования                   : libebml v1.3.6 + libmatroska v1.4.9

Видео
Идентификатор                            : 1
Формат                                   : AVC
Формат/Информация                        : Advanced Video Codec
Профиль формата                          : High@L4
Настройки формата                        : CABAC / 5 Ref Frames
Параметр CABAC формата                   : Да
Параметр RefFrames формата               : 5 кадров
Идентификатор кодека                     : V_MPEG4/ISO/AVC
Продолжительность                        : 1 ч. 33 м.
Битрейт                                  : 4581 Кбит/сек
Ширина                                   : 1920 пикселей
Высота                                   : 800 пикселей
Соотношение сторон                       : 2,40:1
Режим частоты кадров                     : Постоянный
Частота кадров                           : 23,976 (23976/1000) кадра/сек
Цветовое пространство                    : YUV
Субдискретизация насыщенности            : 4:2:0
Битовая глубина                          : 8 бит
Тип развёртки                            : Прогрессивная
Бит/(Пиксели*Кадры)                      : 0.124
Размер потока                            : 2,99 Гбайт (86%)
Заголовок                                : GALVESTON (2018) WEB-DL 1080p
Язык                                     : English
Default                                  : Да
Forced                                   : Нет
Цветовой диапазон                        : Limited
Основные цвета                           : BT.709
Характеристики трансфера                 : BT.709
Коэффициенты матрицы                     : BT.709

Аудио #1
Идентификатор                            : 2
Формат                                   : AC-3
Формат/Информация                        : Audio Coding 3
Идентификатор кодека                     : A_AC3
Продолжительность                        : 1 ч. 33 м.
Вид битрейта                             : Постоянный
Битрейт                                  : 384 Кбит/сек
Каналы                                   : 6 каналов
Расположение каналов                     : Front: L C R, Side: L R, LFE
Частота                                  : 48,0 КГц
Частота кадров                           : 31,250 кадров/сек (1536 SPF)
Битовая глубина                          : 16 бит
Метод сжатия                             : С потерями
Задержка видео                           : -42 мс.
Размер потока                            : 257 Мбайт (7%)
Заголовок                                : GALVESTON (2018) WEB-DL 1080p | iTunes
Язык                                     : Russian
Default                                  : Да
Forced                                   : Нет

Аудио #2
Идентификатор                            : 3
Формат                                   : AC-3
Формат/Информация                        : Audio Coding 3
Идентификатор кодека                     : A_AC3
Продолжительность                        : 1 ч. 33 м.
Вид битрейта                             : Постоянный
Битрейт                                  : 384 Кбит/сек
Каналы                                   : 6 каналов
Расположение каналов                     : Front: L C R, Side: L R, LFE
Частота                                  : 48,0 КГц
Частота кадров                           : 31,250 кадров/сек (1536 SPF)
Битовая глубина                          : 16 бит
Метод сжатия                             : С потерями
Задержка видео                           : -42 мс.
Размер потока                            : 256 Мбайт (7%)
Язык                                     : English
Default                                  : Нет
Forced                                   : Нет

Меню
00:00:00.000                             : en:1
00:10:31.172                             : en:2
00:20:36.485                             : en:3
00:27:37.572                             : en:4
00:40:06.529                             : en:5
00:50:32.404                             : en:6
01:02:35.919                             : en:7
01:08:36.988                             : en:8
01:19:32.601                             : en:9
01:27:28.868                             : en:10



Скриншоты:
[+] Всего файлов в раздаче - 1:
GALVESTON (2018) WEB-DL 1080p.mkv3.49 GB

Текущая раздача:
ДатаКомментарии    РазмерПиры
2018-11-06 U Галвестон / Galveston (2018) WEB-DL 1080p | iTunes 2 К 3.49 GB ↑ 481 ↓ 127

Похожие раздачи по запросу - галвестон:
2018-11-06 U Галвестон / Galveston (2018) WEB-DLRip от MegaPeer | iTunes 1.45 GB ↑ 383 ↓ 181
2018-10-30 U Галвестон / Galveston (2018) WEB-DL 1080p от OlLanDGroup | HDRezka Studio 3.36 GB ↑ 121 ↓ 77
2018-10-28 U Галвестон / Galveston (2018) WEBRip 720p | L2 2.03 GB ↑ 405 ↓ 58
2018-10-27 U Галвестон / Galveston (2018) WEBRip | L2 1.21 GB ↑ 162 ↓ 72

Отзывы
nik1996
Тоска унылая. Жаль времени, убитого на просмотр! Фильм ни о чём и одновременно с претензией или попыткой обо многом!

lady489
Однако, эту муть даже дублировали!о_О Ну, офигеть!.. Со Слепыми пятнами всё одно не сравнить!:-Р
Всем поклонникам актёров - смотрите, обманываться нужно, лучше реже, конечно!))

Зарегистрируйтесь чтобы добавить комментарий.
Обратная связь
Copyleft ©