↑↓Torrent.by
Поиск
Логин: Регистрация
Пароль: Восстановить пароль
Загрузка...

Короткометражные триллеры Евгения Пузыревского (2016-2018) WEBRip от Portablius

Скачать korotkometrazhnye-trillery-evgeniya-puzyrevskogo-2016-2018-webrip-ot-portablius.torrent
U Магнитная ссылка Размер: 698.40 MB Раздают: 54 Качают: 24 Добавлен: 2018-11-06 05:01:31
Короткометражные триллеры Евгения Пузыревского (2016-2018) WEBRip от Portablius

Название: Короткометражные триллеры Евгения Пузыревского
Год выхода: 2016-2018
Жанр: Триллер, драма, ужасы, короткометражка
Режиссер: Евгений Пузыревский
В ролях: Денис Шведов, Ксения Радченко, Кирилл Полухин, Сергей Походаев, Александра Харитонова, Ангелина Стречина, Иван Мулин, Алексей Колубков

О фильме: "Под водой" (2018): «Девушка, находясь одна в квартире, с наслаждением принимает ванну. Тишина, спокойствие, безопасность… ровно до того момента, как она понимает, что рядом кто-то есть. И эта «кто-то» не собирается уходить»

"Он был его другом" (2016): «После неудачной попытки совершить свое первое убийство, начинающий маньяк решает, что самый практичный способ «открыть счёт», это убить друга, который тебе полностью доверяет. Так одинокий и психически неуравновешенный молодой человек знакомится с наивным соседским парнишкой»

"Мама всегда рядом" (2016): «Поздней ночью в загородный дом врывается отчаянная женщина с ружьём и с порога стреляет в хозяина. Но нападавшая не знает, что мужчина в доме не один»

Доп. информация Ограничение: 18+

Композиторы:
"Мама всегда рядом" (2016): Антон Завьялов (группы "25/17", "Лёд 9")
"Он был его другом" (2016): Михаил Мищенко

Страна: Россия
Продолжительность: 01:06:19
Перевод: Не требуется
Субтитры: Нет

Файл
Кодек: XviD
Качество: WEBRip
Видео: 720x304 (2.37:1), 25 fps, XviD build 73 ~1206 kbps avg, 0.22 bit/pixel
Звук: 48 kHz, MPEG Layer 3, 2 ch, ~256.00 kbps avg
[+] MediaInfo
General
Complete name               : Trillery.E.P.2016.2018.WEBRip.Portablius.avi
Format                      : AVI
Format/Info                 : Audio Video Interleave
File size                   : 698 MiB
Duration                    : 1 h 6 min
Overall bit rate            : 1 472 kb/s
Writing application         : VirtualDubMod 1.5.10.3 | www.virtualdub-fr.org || (build 2550/release)
Writing library             : VirtualDubMod build 2550/release

Video
ID                          : 0
Format                      : MPEG-4 Visual
Format profile              : Advanced Simple@L5
Format settings, BVOP       : 1
Format settings, QPel       : No
Format settings, GMC        : No warppoints
Format settings, Matrix     : Custom
Codec ID                    : XVID
Codec ID/Hint               : XviD
Duration                    : 1 h 6 min
Bit rate                    : 1 207 kb/s
Width                       : 720 pixels
Height                      : 304 pixels
Display aspect ratio        : 2.35:1
Frame rate                  : 25.000 FPS
Color space                 : YUV
Chroma subsampling          : 4:2:0
Bit depth                   : 8 bits
Scan type                   : Progressive
Compression mode            : Lossy
Bits/(Pixel*Frame)          : 0.220
Stream size                 : 572 MiB (82%)
Writing library             : XviD 73

Audio
ID                          : 1
Format                      : MPEG Audio
Format version              : Version 1
Format profile              : Layer 3
Codec ID                    : 55
Codec ID/Hint               : MP3
Duration                    : 1 h 6 min
Bit rate mode               : Constant
Bit rate                    : 256 kb/s
Channel(s)                  : 2 channels
Sampling rate               : 48.0 kHz
Compression mode            : Lossy
Stream size                 : 121 MiB (17%)
Alignment                   : Aligned on interleaves
Interleave, duration        : 40  ms (1.00 video frame)
Interleave, preload duratio : 504  ms
Writing library             : LAME3.99r
Encoding settings           : -m s -V 4 -q 2 -lowpass 19.7




Скриншоты:
[+] Всего файлов в раздаче - 1:
Trillery.E.P.2016.2018.WEBRip.Portablius.avi698.40 MB

Текущая раздача:
ДатаКомментарии    РазмерПиры
2018-11-06 U Короткометражные триллеры Евгения Пузыревского (2016-2018) WEBRip от Portablius 698.40 MB ↑ 54 ↓ 24

Похожие раздачи по запросу - короткометражные:
2018-11-03 U Короткометражные триллеры Евгения Пузыревского (2016-2018) WEBRip 720p 2.43 GB ↑ 192 ↓ 85
2018-11-01 U Короткометражные триллеры Евгения Пузыревского (2016-2018) WEBRip 1080p 5.72 GB ↑ 444 ↓ 284

Отзывы
Зарегистрируйтесь чтобы добавить комментарий.
Обратная связь
Copyleft ©