↑↓Torrent.by
Поиск
Логин: Регистрация
Пароль: Восстановить пароль
Загрузка...

Отпуск / Furlough (2018) BDRip-AVC от OlLanDGroup | HDRezka Studio

Скачать otpusk-furlough-2018-bdrip-avc-ot-ollandgroup-hdrezka-studio.torrent
U Магнитная ссылка Размер: 1.52 GB Раздают: 54 Качают: 17 Добавлен: 2018-11-06 05:01:37
Отпуск / Furlough (2018) BDRip-AVC от OlLanDGroup | HDRezka Studio

Отпуск / Furlough
«There are pros and cons to every friendship»

Год выпуска: 2018
Страна: США
Производство: Furlough Productions
Жанр:  Комедия

Режиссёр: Лори Коллье
В ролях: Мелисса Лео, Ла Ла Васкес, Дрена Де Ниро, Тесса Томпсон, Эдгар Рамирес, Анна Пакуин, Вупи Голдберг, Джерри Дин, Эдвард М. Келахэн, Стефани Ноэль Литтл, Лорен Рейто, Лоренцо Беронилла

Перевод: Профессиональный (многоголосый, закадровый) | HDRezka Studio
Субтитры: Английские (полные, SDH)
Реклама: Отсутствует

Описание: Николь Стивенс, стажирующаяся на должность охранника тюрьмы, получает шанс проявить себя, когда заключенной Джоан Андерсон, которая провела за решеткой несколько лет за вооруженное ограбление, разрешают ненадолго покинуть камеру, чтобы навестить тяжело больную мать. Правила для выделяющейся на фоне обычных прохожих парочки довольно просты: Стивенс обязана не спускать глаз с заключенной и контролировать каждое её действие, а Андерсон не должна нарушать протокол, беспрекословно подчиняясь офицеру. Но в ходе поездки тюремщица проникается к своей подопечной искренней симпатией...

Качество: BDRip-AVC | BDRemux | Furlough.2018.1080p.BluRay.REMUX.AVC.DTS-HD.MA.5.1-FGT
Продолжительность: 01:23:24

Формат: MKV
Видео кодек: MPEG-4 AVC
Аудио кодек: AC3
Видео: 1024x426 (2.40:1), 23,976 fps, x264 ~1 968 kbps avg, 0.188 bit/pixel
Аудио #1: 48 kHz, AC3 Dolby Digital, 2 (L,R) ch, ~192.00 kbps avg | RUS (HDRezka Studio)
Аудио #2: 48 kHz, AC3 Dolby Digital, 3/2 (L,C,R,l,r) + LFE ch, ~448.00 kbps avg | ENG

Дата премьеры (мир): 16 марта 2018
Дата премьеры (РФ):

Релиз:


[+] MediaInfo

Общее
Уникальный идентификатор                 : 115280406826663795736505420002038642568 (0x56BA32E15621FDE7FD975F5E0543F788)
Полное имя                               : F:OlLanDGroupFurlough.2018.BDRip(AVC).OlLanDGroup.mkv
Формат                                   : Matroska
Версия формата                           : Version 4 / Version 2
Размер файла                             : 1,52 Гбайт
Продолжительность                        : 1 ч. 23 м.
Общий поток                              : 2604 Кбит/сек
Название фильма                          : Furlough.2018   #TorpedoUK#
Дата кодирования                         : UTC 2018-11-05 13:45:26
Программа кодирования                    : mkvmerge v25.0.0 ('Prog Noir') 64-bit
Библиотека кодирования                   : libebml v1.3.6 + libmatroska v1.4.9
Обложка                                  : Yes
Attachments                              : cover.jpg

Видео
Идентификатор                            : 1
Формат                                   : AVC
Формат/Информация                        : Advanced Video Codec
Профиль формата                          : High@L4.1
Параметр CABAC формата                   : Да
Параметр ReFrames формата                : 10 кадров
Идентификатор кодека                     : V_MPEG4/ISO/AVC
Продолжительность                        : 1 ч. 23 м.
Битрейт                                  : 1968 Кбит/сек
Ширина                                   : 1024 пикселя
Высота                                   : 426 пикселей
Соотношение сторон                       : 2,40:1
Режим частоты кадров                     : Постоянный
Частота кадров                           : 23,976 (24000/1001) кадра/сек
Цветовое пространство                    : YUV
Субдискретизация насыщенности            : 4:2:0
Битовая глубина                          : 8 бит
Тип развёртки                            : Прогрессивная
Бит/(Пиксели*Кадры)                      : 0.188
Размер потока                            : 1,14 Гбайт (75%)
Библиотека кодирования                   : x264 core 146 r2538 121396c
Настройки программы                      : cabac=1 / ref=10 / deblock=1:-3:-3 / analyse=0x3:0x113 / me=umh / subme=11 / psy=1 / psy_rd=0.99:0.04 / mixed_ref=1 / me_range=48 / chroma_me=1 / trellis=2 / 8x8dct=1 / cqm=0 / deadzone=21,11 / fast_pskip=1 / chroma_qp_offset=-3 / threads=6 / lookahead_threads=1 / sliced_threads=0 / nr=0 / decimate=1 / interlaced=0 / bluray_compat=0 / constrained_intra=0 / bframes=11 / b_pyramid=2 / b_adapt=2 / b_bias=0 / direct=3 / weightb=1 / open_gop=0 / weightp=2 / keyint=250 / keyint_min=23 / scenecut=40 / intra_refresh=0 / rc_lookahead=40 / rc=2pass / mbtree=0 / bitrate=1968 / ratetol=1.0 / qcomp=0.60 / qpmin=0 / qpmax=69 / qpstep=4 / cplxblur=20.0 / qblur=0.5 / vbv_maxrate=50000 / vbv_bufsize=62500 / nal_hrd=none / filler=0 / ip_ratio=1.40 / pb_ratio=1.30 / aq=1:1.00
Язык                                     : English
Default                                  : Да
Forced                                   : Нет

Аудио #1
Идентификатор                            : 2
Формат                                   : AC-3
Формат/Информация                        : Audio Coding 3
Расширение режима                        : CM (complete main)
Параметр Endianness формата              : Big
Идентификатор кодека                     : A_AC3
Продолжительность                        : 1 ч. 23 м.
Вид битрейта                             : Постоянный
Битрейт                                  : 192 Кбит/сек
Каналы                                   : 2 канала
Расположение каналов                     : Front: L R
Частота                                  : 48,0 КГц
Частота кадров                           : 31,250 кадров/сек (1536 spf)
Битовая глубина                          : 16 бит
Метод сжатия                             : С потерями
Размер потока                            : 115 Мбайт (7%)
Заголовок                                : MVO [HDrezka Studio]
Язык                                     : Russian
Default                                  : Да
Forced                                   : Нет

Аудио #2
Идентификатор                            : 3
Формат                                   : AC-3
Формат/Информация                        : Audio Coding 3
Расширение режима                        : CM (complete main)
Параметр Endianness формата              : Big
Идентификатор кодека                     : A_AC3
Продолжительность                        : 1 ч. 23 м.
Вид битрейта                             : Постоянный
Битрейт                                  : 448 Кбит/сек
Каналы                                   : 6 каналов
Расположение каналов                     : Front: L C R, Side: L R, LFE
Частота                                  : 48,0 КГц
Частота кадров                           : 31,250 кадров/сек (1536 spf)
Битовая глубина                          : 16 бит
Метод сжатия                             : С потерями
Размер потока                            : 267 Мбайт (17%)
Заголовок                                : [Original]
Язык                                     : English
Default                                  : Нет
Forced                                   : Нет

Текст #1
Идентификатор                            : 4
Формат                                   : UTF-8
Идентификатор кодека                     : S_TEXT/UTF8
Идентификатор кодека/Информация          : UTF-8 Plain Text
Продолжительность                        : 1 ч. 18 м.
Битрейт                                  : 65 бит/сек
Count of elements                        : 1305
Размер потока                            : 38,0 Кбайт (0%)
Заголовок                                : Full
Язык                                     : English
Default                                  : Нет
Forced                                   : Нет

Текст #2
Идентификатор                            : 5
Формат                                   : UTF-8
Идентификатор кодека                     : S_TEXT/UTF8
Идентификатор кодека/Информация          : UTF-8 Plain Text
Продолжительность                        : 1 ч. 22 м.
Битрейт                                  : 71 бит/сек
Count of elements                        : 1498
Размер потока                            : 42,9 Кбайт (0%)
Заголовок                                : SDH
Язык                                     : English
Default                                  : Нет
Forced                                   : Нет

Меню
00:00:00.000                             : en:Chapter 01
00:08:38.236                             : en:Chapter 02
00:17:14.752                             : en:Chapter 03
00:22:03.248                             : en:Chapter 04
00:24:20.677                             : en:Chapter 05
00:30:01.976                             : en:Chapter 06
00:31:43.620                             : en:Chapter 07
00:41:49.683                             : en:Chapter 08
00:48:34.922                             : en:Chapter 09
00:51:38.438                             : en:Chapter 10
00:58:25.512                             : en:Chapter 11
01:13:32.543                             : en:Chapter 12
01:23:22.924                             : en:Chapter 13



Скриншоты:
[+] Всего файлов в раздаче - 1:
Furlough.2018.BDRip(AVC).OlLanDGroup.mkv1.52 GB

Текущая раздача:
ДатаКомментарии    РазмерПиры
2018-11-06 U Отпуск / Furlough (2018) BDRip-AVC от OlLanDGroup | HDRezka Studio 1.52 GB ↑ 54 ↓ 17

Показать еще раздачи по запросу отпуск:
2018-08-18 U Отпуск / Furlough (2018) BDRemux 1080p | HDrezka Studio 18.80 GB ↑ 41 ↓ 52
2018-08-18 U Отпуск / Furlough (2018) BDRip от MegaPeer | HDrezka Studio 1.46 GB ↑ 51 ↓ 38
2018-06-11 U Следствие вели... с Леонидом Каневским. Смертельный отпуск [эфир от 10.06] (2018) WEBRip 500.38 MB ↑ 59 ↓ 21
2018-06-10 U Следствие вели... с Леонидом Каневским. Смертельный отпуск [эфир от 10.06] (2018) WEBRip 1080p от MediaClub 1.76 GB ↑ 64 ↓ 29
2018-03-30 U Отпуск / Furlough (2018) WEB-DLRip | HDrezka Studio 1.45 GB ↑ 30 ↓ 11
2018-03-29 U Отпуск / Furlough (2018) WEBRip 720p | L2 1К1.73 GB ↑ 117 ↓ 36
2018-03-29 U Отпуск / Furlough (2018) WEBRip | L2 1.28 GB ↑ 60 ↓ 25

Отзывы
Зарегистрируйтесь чтобы добавить комментарий.
Обратная связь
Copyleft ©