↑↓Torrent.by
Поиск
Логин: Регистрация
Пароль: Восстановить пароль
Загрузка...

Мальчишник в Европе / Budapest (2018) WEB-DL 1080p от and77200 | iTunes

Скачать malchishnik-v-evrope-budapest-2018-web-dl-1080p-ot-and77200-itunes.torrent
U Магнитная ссылка Размер: 3.64 GB Раздают: 579 Качают: 158 Добавлен: 2018-11-07 10:38:05
Мальчишник в Европе / Budapest (2018) WEB-DL 1080p от and77200 | iTunes

Название: Мальчишник в Европе
Оригинальное название: Budapest
Год выхода: 2018
Жанр:  комедия

Режиссер: Ксавье Жанс / Xavier Gens
В ролях: Маню Пайе (Vincent), Джонатан Коэн (Arnaud), Amélina Limousin, Алис Белаиди (Cécile), Камилль Зорель (Party Girl), Аликс Пуасон (Audrey), Виктор Артус Соларо (Elias), Али Мархьяр (Rémi), Артур Бензакен (Gabor), Антуан Гуи (Tristan), Мари Ковач (Demoiselle d'honneur), Месье Пуп (Georgio)

О фильме: Надоела работа? Достали коллеги? Ответ очевиден - бросить все, уехать в Будапешт и начать закатывать вечеринки для холостяков. С покером, обнаженными красотками и катанием на танках. Отрыв по полной!

Страна: Франция, Бельгия
Продолжительность: 01:42:19
Перевод: Профессиональный (полное дублирование) [iTunes]

Формат: MKV
Качество: WEB-DL 1080p
Видео: MPEG-4 AVC, 1920x858 (2.25:1), 4 708 kbps, 24.000 fps, 0,119 bpp
Аудио: Русский / AC3 / 5.1 / 48 kHz / 384 kbps / 16 bit

Релиз:
Семпл


[+] Media Info

General
Unique ID                                : 305324730716377186540191965245728157836 (0xE5B3677759391B01A72441160908F08C)
Complete name                            : E:Budapest.2018.WEB-DL.1080p.and77200.mkv
Format                                   : Matroska
Format version                           : Version 4 / Version 2
File size                                : 3.64 GiB
Duration                                 : 1 h 42 min
Overall bit rate                         : 5 094 kb/s
Movie name                               : Мальчишник в Европе. 2018 - and77200
Encoded date                             : UTC 2018-11-06 12:47:33
Writing application                      : mkvmerge v20.0.0 ('I Am The Sun') 64-bit
Writing library                          : libebml v1.3.5 + libmatroska v1.4.8

Video
ID                                       : 1
Format                                   : AVC
Format/Info                              : Advanced Video Codec
Format profile                           : High@L4
Format settings, CABAC                   : Yes
Format settings, ReFrames                : 5 frames
Codec ID                                 : V_MPEG4/ISO/AVC
Duration                                 : 1 h 42 min
Bit rate                                 : 4 708 kb/s
Width                                    : 1 920 pixels
Height                                   : 858 pixels
Display aspect ratio                     : 2.25:1
Frame rate mode                          : Constant
Frame rate                               : 24.000 FPS
Color space                              : YUV
Chroma subsampling                       : 4:2:0
Bit depth                                : 8 bits
Scan type                                : Progressive
Bits/(Pixel*Frame)                       : 0.119
Stream size                              : 3.37 GiB (92%)
Language                                 : English
Default                                  : Yes
Forced                                   : No
Color range                              : Limited
Color primaries                          : BT.709
Transfer characteristics                 : BT.709
Matrix coefficients                      : BT.709

Audio
ID                                       : 2
Format                                   : AC-3
Format/Info                              : Audio Coding 3
Mode extension                           : CM (complete main)
Format settings, Endianness              : Big
Codec ID                                 : A_AC3
Duration                                 : 1 h 42 min
Bit rate mode                            : Constant
Bit rate                                 : 384 kb/s
Channel(s)                               : 6 channels
Channel positions                        : Front: L C R, Side: L R, LFE
Sampling rate                            : 48.0 kHz
Frame rate                               : 31.250 FPS (1536 spf)
Bit depth                                : 16 bits
Compression mode                         : Lossy
Delay relative to video                  : -42 ms
Stream size                              : 281 MiB (8%)
Title                                    : iTunes
Language                                 : Russian
Default                                  : Yes
Forced                                   : No

Menu
00:00:00.000                             : en:Глава 1
00:07:37.625                             : en:Глава 2
00:16:28.041                             : en:Глава 3
00:23:56.666                             : en:Глава 4
00:31:26.416                             : en:Глава 5
00:38:45.207                             : en:Глава 6
00:46:46.207                             : en:Глава 7
00:54:19.290                             : en:Глава 8
01:01:38.081                             : en:Глава 9
01:09:57.205                             : en:Глава 10
01:17:42.037                             : en:Глава 11
01:25:04.619                             : en:Глава 12
01:32:37.576                             : en:Глава 13




Скриншоты:
[+] Всего файлов в раздаче - 1:
Budapest.2018.WEB-DL.1080p.and77200.mkv3.64 GB

Текущая раздача:
ДатаКомментарии    РазмерПиры
2018-11-07 U Мальчишник в Европе / Budapest (2018) WEB-DL 1080p от and77200 | iTunes 3.64 GB ↑ 579 ↓ 158

Показать еще раздачи по запросу мальчишник:
2018-11-07 U Мальчишник в Европе / Budapest (2018) WEB-DLRip-AVC от ExKinoRay | iTunes 746.36 MB ↑ 86 ↓ 37
2018-11-07 U Мальчишник в Европе / Budapest (2018) WEB-DLRip от MegaPeer | iTunes 1.46 GB ↑ 433 ↓ 146
2017-07-06 U Мальчишник в Паттайе / Pattaya (2016) BDRip от ExKinoRay | iTunes 1.42 GB ↑ 82 ↓ 16
2017-07-05 U Мальчишник в Паттайе / Pattaya (2016) BDRip-AVC от R.G.Resident | iTunes 1.96 GB ↑ 144 ↓ 25
2017-07-04 U Мальчишник в Паттайе / Pattaya (2016) HDRip-AVC | iTunes 745.91 MB ↑ 103 ↓ 34
2017-07-04 U Мальчишник в Паттайе / Pattaya (2016) BDRip от MegaPeer | iTunes 2К748.64 MB ↑ 381 ↓ 56
2017-07-04 U Мальчишник в Паттайе / Pattaya (2016) BDRip 1080p от ExKinoRay | iTunes 1К10.26 GB ↑ 200 ↓ 79

Отзывы
Зарегистрируйтесь чтобы добавить комментарий.
Обратная связь
Copyleft ©