↑↓Torrent.by
Поиск
Логин: Регистрация
Пароль: Восстановить пароль
Загрузка...

Ольга [03x01-02 из 20] (2018) HDTV 1080p от Generalfilm

Скачать olga-03x01-02-iz-20-2018-hdtv-1080p-ot-generalfilm.torrent
U Магнитная ссылка Размер: 2.28 GB Раздают: 110 Качают: 69 Добавлен: 2018-11-07 10:42:35
Ольга [03x01-02 из 20] (2018) HDTV 1080p от Generalfilm

Название: Ольга
Год выпуска: 2018
Страна: Россия
Жанр: комедия
Перевод: Не требуется [Русский]
Продолжительность: 00:22:54
Режиссер: Алексей Нужный , Игорь Волошин , Антон Борматов
В ролях: Яна Троянова (Ольга Терентьева), Василий Кортуков (Юрий Геннадьевич Терентьев, отец Ольги), Алина Алексеева (Лена, младшая сестра Ольги), Ксения Суркова (Аня, дочь Ольги), Сергей Романович (Андрей, парень Ани), Максим Костромыкин (Григорий Юсупов), Гоша Куценко (Володя), Фархад Гусейнов (водитель), Борис Дергачев, Александр Шам (Марат), Александр Никольский, Александр Силаев (Лютый)

Описание:
Третий сезон «Ольги» отличает повышенная событийность: в каждой серии сюжет может менять ход три-четыре раза, так что не совсем понятно, в какой тупик на этот раз придут герои. И каким образом из него вообще будут выбераться. Юмор имеет терапевтический эффект, ведь относиться всерьез к такому валу проблем попросту вредно для организма. В новых сериях Ольга и компания, как в сказке про репку, продолжат тащить друг друга из болота обыденности и безнадеги, в которое иногда заводит героев необычайно смешная и по-своему счастливая жизнь

Качество: HDTV 1080p
Формат: MKV
Видео: AVC, 1920x1080 (16:9), 7050 kbps, 25 fps, 0,136 bpp
Аудио: AC3 / 2.0 / 48 kHz / 192 kbps /


Релиз:


[+] ОтчетМедиаИнфо

General
Unique ID                                : 231162096399002349291045873029176388832 (0xADE83349E3C0CBD1880B62A389A06CE0)
Complete name                            : E:Запись с твOlga  S03.2018.HDTV 1080p.RG GeneralFilmOlga.s03.e01.2018.HDTV 1080p.by.White Smoke.R.G.Generalfilm.mkv
Format                                   : Matroska
Format version                           : Version 4 / Version 2
File size                                : 1.16 GiB
Duration                                 : 22 min
Overall bit rate mode                    : Constant
Overall bit rate                         : 7 240 kb/s
Movie name                               : Olga.s03.e01.2018.HDTV 1080p.by.White Smoke.R.G.Generalfilm.mkv
Encoded date                             : UTC 2018-11-06 23:00:39
Writing application                      : mkvmerge v6.8.0 ('Theme for Great Cities') 64bit built on Mar  2 2014 21:34:26
Writing library                          : libebml v1.3.0 + libmatroska v1.4.1
Cover                                    : Yes
Attachments                              : cover.jpg

Video
ID                                       : 1
Format                                   : AVC
Format/Info                              : Advanced Video Codec
Format profile                           : High@L4.1
Format settings, CABAC                   : Yes
Format settings, ReFrames                : 3 frames
Codec ID                                 : V_MPEG4/ISO/AVC
Duration                                 : 22 min
Bit rate mode                            : Constant
Bit rate                                 : 7 051 kb/s
Width                                    : 1 920 pixels
Height                                   : 1 080 pixels
Display aspect ratio                     : 16:9
Frame rate mode                          : Constant
Frame rate                               : 25.000 FPS
Standard                                 : PAL
Color space                              : YUV
Chroma subsampling                       : 4:2:0
Bit depth                                : 8 bits
Scan type                                : Progressive
Bits/(Pixel*Frame)                       : 0.136
Stream size                              : 1.11 GiB (95%)
Default                                  : Yes
Forced                                   : No
Color range                              : Limited
Color primaries                          : BT.709
Transfer characteristics                 : BT.709
Matrix coefficients                      : BT.709

Audio
ID                                       : 2
Format                                   : AC-3
Format/Info                              : Audio Coding 3
Mode extension                           : CM (complete main)
Format settings, Endianness              : Big
Codec ID                                 : A_AC3
Duration                                 : 22 min
Bit rate mode                            : Constant
Bit rate                                 : 192 kb/s
Channel(s)                               : 2 channels
Channel positions                        : Front: L R
Sampling rate                            : 48.0 kHz
Frame rate                               : 31.250 FPS (1536 spf)
Compression mode                         : Lossy
Stream size                              : 31.5 MiB (3%)
Default                                  : Yes
Forced                                   : No



Скриншоты:
[+] Всего файлов в раздаче - 2:
Olga.s03.e01.2018.HDTV 1080p.by.White Smoke.R.G.Generalfilm.mkv1.16 GB
Olga.s03.e02.2018.HDTV 1080p.by.White Smoke.R.G.Generalfilm.mkv1.13 GB

Текущая раздача:
ДатаКомментарии    РазмерПиры
2018-11-07 U Ольга [03x01-02 из 20] (2018) HDTV 1080p от Generalfilm 2.28 GB ↑ 110 ↓ 69

Показать еще раздачи по запросу ольга:
Вчера U Ольга [03х01-06 из 20] (2018) WEBRip-AVC от Files-x 1.63 GB ↑ 34 ↓ 188
Вчера U Ольга [03x01-06 из 16] (2018) HDTVRip 720p от MediaClub 3.91 GB ↑ 48 ↓ 350
Вчера U Ольга [03x01-06 из 20] (2018) WEBRip 1.68 GB ↑ 209 ↓ 550
2018-11-13 U Ольга [03х01-05 из 20] (2018) WEBRip-AVC от Files-x 1.38 GB ↑ 51 ↓ 134
2018-11-13 U Ольга [03x01-05 из 16] (2018) HDTVRip 720p от MediaClub 3.30 GB ↑ 72 ↓ 413
2018-11-13 U Ольга [03x01-05 из 20] (2018) WEBRip 1080p 3.96 GB ↑ 59 ↓ 139
2018-11-13 U Ольга [03x01-05 из 20] (2018) WEBRip 1.42 GB ↑ 179 ↓ 524

Отзывы
Зарегистрируйтесь чтобы добавить комментарий.
Обратная связь
Copyleft ©