↑↓Torrent.by
Поиск
Логин: Регистрация
Пароль: Восстановить пароль
Загрузка...

Эммануэль 4 / Emmanuelle IV (1984) DVDRip-AVC | P2, L1

Скачать emmanuel-4-emmanuelle-iv-1984-dvdrip-avc-p2-l1.torrent
U Магнитная ссылка Размер: 3.25 GB Раздают: 65 Качают: 36 Добавлен: 2018-11-07 13:55:24
Эммануэль 4 / Emmanuelle IV (1984) DVDRip-AVC | P2, L1

Название: Эммануэль 4
Оригинальное название: Emmanuelle IV
Год выхода: 1984

Страна: Франция
Студия: Sara Films, AS Productions
Продолжительность: 01:28:32
Жанр: драма, мелодрама

Режиссер: Франсис Леруа, Айрис Летанс
В ролях: Сильвия Кристель, Миа Нюгрен, Патрик Бошо, Дебора Пауэр, Софи Бержер, Жерар Димильо, Соня Мартин, Кристиан Маркан, Мэрилин Джесс, Изабель Эстелль, ...

Перевод:
- Профессиональный (двухголосый, закадровый) «Ракурс» по заказу Екатеринбург-Арт
- Профессиональный (двухголосый, закадровый) R5 от «Юниверсал Пикчерс Рус»
- Любительский (одноголосый, закадровый) «Немец»

О фильме: Благодаря чудесам пластической хирургии легендарная Эммануэль преображается в юную прекрасную фотомодель и решительно меняет свой привычный круг общения.
Используя чарующие изменения в своем внешнем облике, Эммануэль открывает на фоне романтических пейзажей Бразилии новые секреты своей сексуальности…

Кодек: x264
Качество: DVDRip-AVC
Видео: 960x568, 4300 kbps, 25 fps
Аудио #1: AC-3, 2 ch, 192 kbps (Rus) - DVO Ракурс по заказу Екатеринбург-Арт
Аудио #2: AC-3, 2 ch, 192 kbps (Rus) - DVO R5 «Юниверсал Пикчерс Рус»
Аудио #3: AC-3, 2 ch, 192 kbps (Rus) - VO Немец
Аудио #4: AC-3, 2 ch, 192 kbps (Fre)
Аудио #5: AC-3, 2 ch, 192 kbps (Ger)
Субтитры: английские, немецкие


[+] Дополнительная информация
За исходник спасибо - Lucian666

Студия «Ракурс» - на французский оригинал
R5 от «Юниверсал Пикчерс Рус» - на английский дубляж
Немец - на немецкий дубляж



[+] MediaInfo

x264 [info]: frame I:696   Avg QP:16.48  size: 70077
x264 [info]: frame P:25444 Avg QP:19.31  size: 36744
x264 [info]: frame B:106679 Avg QP:21.13  size: 17545
x264 [info]: consecutive B-frames:  0.9%  1.4%  4.4% 15.7% 16.1% 41.9%  8.9%  5.3%  2.0%  1.7%  0.8%  0.8%  0.1%

Общее
Уникальный идентификатор : 187043409427680289154331842229971529234 (0x8CB740146D8B55489613D89BE3B52E12)
Полное имя : Эммануэль 4 (Emmanuelle IV) 1984 DVDRip.mkv
Формат : Matroska
Версия формата : Version 2
Размер файла : 3,25 Гбайт
Продолжительность : 1 ч. 28 м.
Общий поток : 5263 Кбит/сек
Дата кодирования : UTC 2018-11-06 16:42:48
Программа кодирования : mkvmerge v4.0.0 ('The Stars were mine') сборка от Jun 6 2010 16:18:42
Библиотека кодирования : libebml v1.0.0 + libmatroska v1.0.0

Видео
Идентификатор : 1
Формат : AVC
Формат/Информация : Advanced Video Codec
Профиль формата : High@L4.1
Параметр CABAC формата : Да
Параметр ReFrames формата : 12 кадров
Идентификатор кодека : V_MPEG4/ISO/AVC
Продолжительность : 1 ч. 28 м.
Битрейт : 4300 Кбит/сек
Ширина : 960 пикселей
Высота : 568 пикселей
Соотношение сторон : 5:3
Режим частоты кадров : Постоянный
Частота кадров : 25,000 кадров/сек
Цветовое пространство : YUV
Субдискретизация насыщенности : 4:2:0
Битовая глубина : 8 бит
Тип развёртки : Прогрессивная
Бит/(Пиксели*Кадры) : 0.315
Размер потока : 2,60 Гбайт (80%)
Библиотека кодирования : x264 core 146 r2538 121396c
Настройки программы : cabac=1 / ref=12 / deblock=1:-1:-1 / analyse=0x3:0x133 / me=umh / subme=11 / psy=1 / psy_rd=1.00:0.00 / mixed_ref=1 / me_range=32 / chroma_me=1 / trellis=2 / 8x8dct=1 / cqm=0 / deadzone=21,11 / fast_pskip=0 / chroma_qp_offset=-2 / threads=12 / lookahead_threads=2 / sliced_threads=0 / nr=0 / decimate=0 / interlaced=0 / bluray_compat=0 / constrained_intra=0 / bframes=12 / b_pyramid=2 / b_adapt=2 / b_bias=0 / direct=3 / weightb=1 / open_gop=0 / weightp=2 / keyint=250 / keyint_min=25 / scenecut=40 / intra_refresh=0 / rc=2pass / mbtree=0 / bitrate=4300 / ratetol=1.0 / qcomp=0.60 / qpmin=0 / qpmax=69 / qpstep=4 / cplxblur=20.0 / qblur=0.5 / ip_ratio=1.40 / pb_ratio=1.30 / aq=3:0.80
Язык : French
Default : Нет
Forced : Нет

Аудио #1
Идентификатор : 2
Формат : AC-3
Формат/Информация : Audio Coding 3
Расширение режима : CM (complete main)
Параметр Endianness формата : Big
Идентификатор кодека : A_AC3
Продолжительность : 1 ч. 28 м.
Вид битрейта : Постоянный
Битрейт : 192 Кбит/сек
Каналы : 2 канала
Расположение каналов : Front: L R
Частота : 48,0 КГц
Частота кадров : 31,250 кадров/сек (1536 spf)
Метод сжатия : С потерями
Размер потока : 122 Мбайт (4%)
Заголовок : DVO Ракурс по заказу Екатеринбург-Арт
Язык : Russian
Default : Нет
Forced : Нет

Аудио #2
Идентификатор : 3
Формат : AC-3
Формат/Информация : Audio Coding 3
Расширение режима : CM (complete main)
Параметр Endianness формата : Big
Идентификатор кодека : A_AC3
Продолжительность : 1 ч. 28 м.
Вид битрейта : Постоянный
Битрейт : 192 Кбит/сек
Каналы : 2 канала
Расположение каналов : Front: L R
Частота : 48,0 КГц
Частота кадров : 31,250 кадров/сек (1536 spf)
Метод сжатия : С потерями
Размер потока : 122 Мбайт (4%)
Заголовок : DVO R5 «Юниверсал Пикчерс Рус»
Язык : Russian
Default : Нет
Forced : Нет

Аудио #3
Идентификатор : 4
Формат : AC-3
Формат/Информация : Audio Coding 3
Расширение режима : CM (complete main)
Параметр Endianness формата : Big
Идентификатор кодека : A_AC3
Продолжительность : 1 ч. 28 м.
Вид битрейта : Постоянный
Битрейт : 192 Кбит/сек
Каналы : 2 канала
Расположение каналов : Front: L R
Частота : 48,0 КГц
Частота кадров : 31,250 кадров/сек (1536 spf)
Метод сжатия : С потерями
Размер потока : 122 Мбайт (4%)
Заголовок : VO Немец
Язык : Russian
Default : Нет
Forced : Нет

Аудио #4
Идентификатор : 5
Формат : AC-3
Формат/Информация : Audio Coding 3
Расширение режима : CM (complete main)
Параметр Endianness формата : Big
Идентификатор кодека : A_AC3
Продолжительность : 1 ч. 28 м.
Вид битрейта : Постоянный
Битрейт : 192 Кбит/сек
Каналы : 2 канала
Расположение каналов : Front: L R
Частота : 48,0 КГц
Частота кадров : 31,250 кадров/сек (1536 spf)
Метод сжатия : С потерями
Размер потока : 122 Мбайт (4%)
Язык : French
Default : Нет
Forced : Нет

Аудио #5
Идентификатор : 6
Формат : AC-3
Формат/Информация : Audio Coding 3
Расширение режима : CM (complete main)
Параметр Endianness формата : Big
Идентификатор кодека : A_AC3
Продолжительность : 1 ч. 28 м.
Вид битрейта : Постоянный
Битрейт : 192 Кбит/сек
Каналы : 2 канала
Расположение каналов : Front: L R
Частота : 48,0 КГц
Частота кадров : 31,250 кадров/сек (1536 spf)
Метод сжатия : С потерями
Размер потока : 122 Мбайт (4%)
Язык : German
Default : Нет
Forced : Нет

Текст #1
Идентификатор : 7
Формат : UTF-8
Идентификатор кодека : S_TEXT/UTF8
Идентификатор кодека/Информация : UTF-8 Plain Text
Язык : English
Default : Нет
Forced : Нет

Текст #2
Идентификатор : 8
Формат : UTF-8
Идентификатор кодека : S_TEXT/UTF8
Идентификатор кодека/Информация : UTF-8 Plain Text
Язык : German
Default : Нет
Forced : Нет

Меню
00:00:00.000 : en:Chapter 1
00:05:52.880 : en:Chapter 2
00:07:19.120 : en:Chapter 3
00:09:53.920 : en:Chapter 4
00:16:32.080 : en:Chapter 5
00:21:42.240 : en:Chapter 6
00:24:03.520 : en:Chapter 7
00:27:12.000 : en:Chapter 8
00:30:53.160 : en:Chapter 9
00:37:01.840 : en:Chapter 10
00:48:42.840 : en:Chapter 11
00:54:02.120 : en:Chapter 12
00:58:27.360 : en:Chapter 13
01:05:24.840 : en:Chapter 14
01:08:38.840 : en:Chapter 15
01:11:16.440 : en:Chapter 16
01:13:54.920 : en:Chapter 17
01:15:50.920 : en:Chapter 18
01:20:36.440 : en:Chapter 19
01:26:28.040 : en:Chapter 20
01:28:32.760 : en:Chapter 21



Скриншоты:
[+] Всего файлов в раздаче - 1:
Эммануэль 4 (Emmanuelle IV) 1984 DVDRip.mkv3.25 GB

Текущая раздача:
ДатаКомментарии    РазмерПиры
2018-11-07 U Эммануэль 4 / Emmanuelle IV (1984) DVDRip-AVC | P2, L1 3.25 GB ↑ 65 ↓ 36

Похожие раздачи по запросу - эммануэль:
2017-09-17 U Так держать, Эммануэль / Carry on Emmannuelle (1978) DVDRip | L2 1.45 GB ↑ 144 ↓ 64
2017-06-24 U Демон Эммануэль / Emmanuelle 2000: Emmanuelle Pie (2003) DVDRip | P2 736.76 MB ↑ 390 ↓ 105
2015-10-27 U Эммануэль Арсан - Сборник произведений [17 ниг] (1991-2015) FB2, DjVu 10.41 MB ↑ 276 ↓ 9
2014-03-02 U Эммануэль и правда о рыбах / The Truth About Emanuel (2013) WEB-DLRip | L1 1.18 GB ↑ 103 ↓ 12
2014-03-02 U Эммануэль и правда о рыбах / The Truth About Emanuel (2013) BDRip 720p от CINEMANIA | L1 4.50 GB ↑ 17 ↓ 28
2014-02-15 U Эммануэль / Emmanuelle (1974) BDRip 1080р 9.56 GB ↑ 376 ↓ 4

Отзывы
Зарегистрируйтесь чтобы добавить комментарий.
Обратная связь
Copyleft ©