↑↓Torrent.by
Поиск
Логин: Регистрация
Пароль: Восстановить пароль
Загрузка...

Основано на реальных событиях / D'après une histoire vraie (2017) BDRip 1080p от селезень | iTunes

Скачать osnovano-na-realnyh-sobytiyah-d-apr-s-une-histoire-vraie-2017-bdrip-1080p-ot-selezen-itunes.torrent
U Магнитная ссылка Размер: 9.11 GB Раздают: 84 Качают: 73 Добавлен: 2018-11-08 07:51:01
Основано на реальных событиях / D'après une histoire vraie (2017) BDRip 1080p от селезень | iTunes

Название: Основано на реальных событиях
Оригинальное название: D'après une histoire vraie
Год выхода: 2017
Жанр: Триллер, драма, детектив
Режиссер: Роман Полански
В ролях: Эмманюэль Сенье, Ева Грин, Венсан Перес, Доминик Пинон, Камиль Шаму, Брижит Роюан, Жозе Дайан, Ноэми Львовски, Леонелло Брандолини, Элизабет Куин

О фильме: Измученную фанатами и терзаемую горькими воспоминаниями Дельфин бомбардируют анонимками, обвиняющими ее в том, что она пожертвовала собственной семьей. Писательница в творческом кризисе, ее парализует сама мысль о том, чтобы начать писать снова.

Страна: Франция, Польша, Бельгия
Студия: Belga Productions, Canal+ [fr], Ciné, France Télévisions
Продолжительность: 01:41:07
Перевод: Дублированный | iTunes

Качество: BDRip 1080p
Видео: MPEG-4 AVC, 1920x800, 11.0 Mbit/s, 24.000 fps
Звук:
Аудио #01: 48 kHz, AC3, 5.1, 384 Kbps | iTunes | RUS |
Аудио #02: 48 kHz, DTS, 5.1, 1510 Kbps | Оригинал |  FRE |
Субтитры: Русские

Релиз:


[+] MI
General
Unique ID                   : 329327085983976484306923956696373092520 (0xF7C216F29C21487A52C0E281373160A8)
Complete name               : D:Video111D.Apres.Une.Histoire.Vraie.2017.BDRip.1080p.selezen.mkv
Format                      : Matroska
Format version              : Version 4
File size                   : 9.11 GiB
Duration                    : 1 h 41 min
Overall bit rate            : 12.9 Mb/s
Movie name                  : D'après une histoire vraie 2017 from селезень
Encoded date                : UTC 2018-11-07 17:41:53
Writing application         : mkvmerge v28.0.0 ('Voice In My Head') 64-bit
Writing library             : libebml v1.3.6 + libmatroska v1.4.9
Cover                       : Yes
Attachments                 : cover.jpg

Video
ID                          : 1
Format                      : AVC
Format/Info                 : Advanced Video Codec
Format profile              : High@L4.1
Format settings             : CABAC / 5 Ref Frames
Format settings, CABAC      : Yes
Format settings, ReFrames   : 5 frames
Codec ID                    : V_MPEG4/ISO/AVC
Duration                    : 1 h 41 min
Bit rate                    : 11.0 Mb/s
Width                       : 1 920 pixels
Height                      : 800 pixels
Display aspect ratio        : 2.40:1
Frame rate mode             : Constant
Frame rate                  : 24.000 FPS
Color space                 : YUV
Chroma subsampling          : 4:2:0
Bit depth                   : 8 bits
Scan type                   : Progressive
Bits/(Pixel*Frame)          : 0.298
Stream size                 : 7.77 GiB (85%)
Title                       : NEO
Writing library             : x264 core 150
Encoding settings           : cabac=1 / ref=5 / deblock=1:-3:-3 / analyse=0x3:0x133 / me=umh / subme=10 / psy=1 / psy_rd=1,00:10,00 / mixed_ref=1 / me_range=24 / chroma_me=1 / trellis=2 / 8x8dct=1 / cqm=0 / deadzone=21,11 / fast_pskip=1 / chroma_qp_offset=-4 / threads=12 / lookahead_threads=2 / sliced_threads=0 / nr=0 / decimate=1 / interlaced=0 / bluray_compat=0 / constrained_intra=0 / bframes=8 / b_pyramid=2 / b_adapt=2 / b_bias=0 / direct=3 / weightb=1 / open_gop=0 / weightp=2 / keyint=240 / keyint_min=24 / scenecut=40 / intra_refresh=0 / rc_lookahead=60 / rc=2pass / mbtree=1 / bitrate=11000 / ratetol=1,0 / qcomp=0,60 / qpmin=0 / qpmax=69 / qpstep=4 / cplxblur=20,0 / qblur=0,5 / vbv_maxrate=62500 / vbv_bufsize=78125 / nal_hrd=none / filler=0 / ip_ratio=1,40 / aq=1:1,00
Language                    : French
Default                     : Yes
Forced                      : No
Color range                 : Limited
Color primaries             : BT.709
Transfer characteristics    : BT.709
Matrix coefficients         : BT.709

Audio #1
ID                          : 2
Format                      : AC-3
Format/Info                 : Audio Coding 3
Commercial name             : Dolby Digital
Codec ID                    : A_AC3
Duration                    : 1 h 41 min
Bit rate mode               : Constant
Bit rate                    : 384 kb/s
Channel(s)                  : 6 channels
Channel layout              : L R C LFE Ls Rs
Sampling rate               : 48.0 kHz
Frame rate                  : 31.250 FPS (1536 SPF)
Bit depth                   : 16 bits
Compression mode            : Lossy
Stream size                 : 278 MiB (3%)
Title                       : iTunes
Language                    : Russian
Service kind                : Complete Main
Default                     : Yes
Forced                      : Yes

Audio #2
ID                          : 3
Format                      : DTS
Format/Info                 : Digital Theater Systems
Codec ID                    : A_DTS
Duration                    : 1 h 41 min
Bit rate mode               : Constant
Bit rate                    : 1 509 kb/s
Channel(s)                  : 6 channels
Channel layout              : C L R Ls Rs LFE
Sampling rate               : 48.0 kHz
Frame rate                  : 93.750 FPS (512 SPF)
Bit depth                   : 24 bits
Compression mode            : Lossy
Stream size                 : 1.07 GiB (12%)
Title                       : Original
Language                    : French
Default                     : No
Forced                      : No

Text
ID                          : 4
Format                      : UTF-8
Codec ID                    : S_TEXT/UTF8
Codec ID/Info               : UTF-8 Plain Text
Duration                    : 1 h 35 min
Bit rate                    : 81 b/s
Count of elements           : 1226
Stream size                 : 57.5 KiB (0%)
Title                       : Full
Language                    : Russian
Default                     : No
Forced                      : No

Menu
00:00:00.000                : en:Chapter 1
00:05:15.333                : en:Chapter 2
00:11:46.750                : en:Chapter 3
00:18:48.000                : en:Chapter 4
00:28:29.666                : en:Chapter 5
00:36:41.333                : en:Chapter 6
00:48:39.708                : en:Chapter 7
01:01:00.333                : en:Chapter 8
01:11:11.916                : en:Chapter 9
01:20:10.958                : en:Chapter 10
01:32:13.250                : en:Chapter 11
01:36:48.666                : en:Chapter 12



Скриншоты:
[+] Всего файлов в раздаче - 1:
D.Apres.Une.Histoire.Vraie.2017.BDRip.1080p.selezen.mkv9.11 GB

Текущая раздача:
ДатаКомментарии    РазмерПиры
2018-11-08 U Основано на реальных событиях / D'après une histoire vraie (2017) BDRip 1080p от селезень | iTunes 9.11 GB ↑ 84 ↓ 73

Похожие раздачи по запросу - основано:
2018-11-08 U Основано на реальных событиях / D'après une histoire vraie (2017) BDRip от MegaPeer | iTunes 1.41 GB ↑ 143 ↓ 64
2018-09-05 U Основано на реальных событиях / D'après une histoire vraie (2017) WEBRip | GreenРай Studio 1.37 GB ↑ 101 ↓ 14

Отзывы
Зарегистрируйтесь чтобы добавить комментарий.
Обратная связь
Copyleft ©