↑↓Torrent.by
Поиск
Логин: Регистрация
Пароль: Восстановить пароль
Загрузка...

Мег: Монстр глубины / The Meg (2018) BDRip 1080p от qqss44 & MegaPeer | iTunes

Скачать meg-monstr-glubiny-the-2018-bdrip-1080p-ot-qqss44-megapeer-itunes.torrent
U Магнитная ссылка Размер: 7.54 GB Раздают: 72 Качают: 25 Добавлен: 2018-11-08 07:51:28
Мег: Монстр глубины / The Meg (2018) BDRip 1080p от qqss44 & MegaPeer | iTunes

Анонсы 1080p от qqss44

Информация о фильме
Название: Мег: Монстр глубины
Оригинальное название: The Meg
Год выпуска: 2018
Жанр: Ужасы, фантастика, боевик, триллер
Режиссер: Джон Тёртлтауб
В ролях: Джейсон Стэйтем, Бинбин Ли, Рэйн Уилсон, Клифф Кёртис, Уинстон Чао, Шуя Софиа Цай, Руби Роуз, Пейдж Кеннеди, Роберт Тейлор (II), Оулавюр Дарри Оулафссон, Джессика МакНэми, Маси Ока, Хунмэй Мэй, Витхая Пансрингарм, Роб Уильямс, Таванда Маниймо

О фильме:
Глубоководный батискаф, осуществляющий наблюдение в рамках международной программы по изучению подводной жизни, был атакован огромным существом, которое все считали давно вымершим. Неисправный аппарат теперь лежит на дне глубочайшей впадины Тихого океана… с оказавшимся в ловушке экипажем. Их время на исходе. Китайский океанограф-новатор, несмотря на протесты его дочери Суинь, зовет спасателя-подводника Джонаса Тейлора, чтобы тот помог спасти команду и океан от невиданной угрозы — доисторической 23-метровой акулы, мегалодона. Никто и подумать не мог, что много лет назад Тейлор уже сталкивался с этим чудовищным созданием.

Страна: Китай, США
Студия: Apelles Entertainment, Di Bonaventura Pictures, Flagship Entertainment Group
Продолжительность: 01:53:13
Перевод: Дублированный | iTunes

Файл
Формат: MKV, BDRip 1080p
Видео: MPEG-4 AVC, 9160 Кбит/с, 1920x804
Aудио#1: [RUS] AC3 | 48 KHz | 5.1 (Front: L С R Side: L R) + LFE | ~384 kbps
Субтитры: русские форсированные (стилизованные, анимированные, вшиты в видео) + полные
Релиз от:


[+] МИ

Общее
Уникальный идентификатор                 : 249391104343913343803621919193713203016 (0xBB9EFAC53A9A47E0A1FB80EF8C51D748)
Полное имя                               : H:The.Meg.(2018).BDRip-1080p.MegaPeer.(qqss44).mkv
Формат                                   : Matroska
Версия формата                           : Version 2
Размер файла                             : 7,54 Гбайт
Продолжительность                        : 1 ч. 53 м.
Общий поток                              : 9539 Кбит/сек
Название фильма                          : The.Meg.(2018).BDRip-1080p.MegaPeer.(qqss44)
Дата кодирования                         : UTC 2018-11-07 12:29:07
Программа кодирования                    : mkvmerge v7.8.0 ('River Man') 32bit built on Apr  3 2015 12:11:22
Библиотека кодирования                   : libebml v1.3.1 + libmatroska v1.4.2

Видео
Идентификатор                            : 1
Формат                                   : AVC
Формат/Информация                        : Advanced Video Codec
Профиль формата                          : High@L4.1
Параметр CABAC формата                   : Да
Параметр ReFrames формата                : 5 кадров
Идентификатор кодека                     : V_MPEG4/ISO/AVC
Продолжительность                        : 1 ч. 53 м.
Битрейт                                  : 9160 Кбит/сек
Ширина                                   : 1920 пикселей
Высота                                   : 804 пикселя
Соотношение сторон                       : 2,40:1
Режим частоты кадров                     : Постоянный
Частота кадров                           : 23,976 (24000/1001) кадра/сек
Цветовое пространство                    : YUV
Субдискретизация насыщенности            : 4:2:0
Битовая глубина                          : 8 бит
Тип развёртки                            : Прогрессивная
Бит/(Пиксели*Кадры)                      : 0.247
Размер потока                            : 7,09 Гбайт (94%)
Библиотека кодирования                   : x264 core 152 r2851 ba24899
Настройки программы                      : cabac=1 / ref=5 / deblock=1:0:0 / analyse=0x3:0x113 / me=umh / subme=11 / psy=1 / psy_rd=1.00:0.00 / mixed_ref=1 / me_range=32 / chroma_me=1 / trellis=2 / 8x8dct=1 / cqm=0 / deadzone=21,11 / fast_pskip=0 / chroma_qp_offset=-2 / threads=12 / lookahead_threads=2 / sliced_threads=0 / nr=0 / decimate=0 / interlaced=0 / bluray_compat=0 / constrained_intra=0 / bframes=9 / b_pyramid=2 / b_adapt=2 / b_bias=0 / direct=3 / weightb=1 / open_gop=0 / weightp=2 / keyint=250 / keyint_min=23 / scenecut=40 / intra_refresh=0 / rc_lookahead=40 / rc=2pass / mbtree=0 / bitrate=9160 / ratetol=1.0 / qcomp=0.70 / qpmin=0 / qpmax=69 / qpstep=4 / cplxblur=20.0 / qblur=0.5 / vbv_maxrate=50000 / vbv_bufsize=62500 / nal_hrd=none / filler=0 / ip_ratio=1.40 / pb_ratio=1.30 / aq=3:0.80
Язык                                     : English
Default                                  : Да
Forced                                   : Нет

Аудио
Идентификатор                            : 2
Формат                                   : AC-3
Формат/Информация                        : Audio Coding 3
Расширение режима                        : CM (complete main)
Параметр Endianness формата              : Big
Идентификатор кодека                     : A_AC3
Продолжительность                        : 1 ч. 53 м.
Вид битрейта                             : Постоянный
Битрейт                                  : 384 Кбит/сек
Каналы                                   : 6 каналов
Расположение каналов                     : Front: L C R, Side: L R, LFE
Частота                                  : 48,0 КГц
Частота кадров                           : 31,250 кадров/сек (1536 spf)
Метод сжатия                             : С потерями
Размер потока                            : 311 Мбайт (4%)
Язык                                     : Russian
Default                                  : Да
Forced                                   : Нет

Текст
Идентификатор                            : 3
Формат                                   : UTF-8
Идентификатор кодека                     : S_TEXT/UTF8
Идентификатор кодека/Информация          : UTF-8 Plain Text
Язык                                     : Russian
Default                                  : Нет
Forced                                   : Нет

Меню
00:00:00.000                             : en:Chapter 1
00:08:48.569                             : en:Chapter 2
00:18:13.884                             : en:Chapter 3
00:27:09.878                             : en:Chapter 4
00:39:30.117                             : en:Chapter 5
00:49:10.906                             : en:Chapter 6
00:58:00.768                             : en:Chapter 7
01:08:22.640                             : en:Chapter 8
01:19:45.405                             : en:Chapter 9
01:30:03.439                             : en:Chapter 10
01:42:40.362                             : en:Chapter 11




Скриншоты:
[+] Всего файлов в раздаче - 1:
The.Meg.(2018).BDRip-1080p.MegaPeer.(qqss44).mkv7.54 GB

Текущая раздача:
ДатаКомментарии    РазмерПиры
2018-11-08 U Мег: Монстр глубины / The Meg (2018) BDRip 1080p от qqss44 & MegaPeer | iTunes 7.54 GB ↑ 72 ↓ 25

Показать еще раздачи по запросу монстр:
2018-11-12 U Мег: Монстр глубины / The Meg (2018) HDRip от Scarabey | Лицензия 1.45 GB ↑ 73 ↓ 17
2018-11-12 U Мег: Монстр глубины / The Meg (2018) BDRip 1080p от qqss44 & MegaPeer | Лицензия 7.60 GB ↑ 133 ↓ 55
2018-11-11 U Мег: Монстр глубины / The Meg (2018) BDRip-AVC от HELLYWOOD | Лицензия 2.91 GB ↑ 96 ↓ 56
2018-11-11 U Мег: Монстр глубины / The Meg (2018) BDRip 1080p от селезень | Лицензия 11.95 GB ↑ 101 ↓ 81
2018-11-11 U Мег: Монстр глубины / The Meg (2018) BDRip 720p от селезень | Лицензия 5.63 GB ↑ 121 ↓ 77
2018-11-11 U Мег: Монстр глубины / The Meg (2018) BDRip от MegaPeer | Лицензия 1.46 GB ↑ 24 ↓ 54
2018-11-08 U Мег: Монстр глубины / The Meg (2018) BDRip от ExKinoRay | iTunes 2.14 GB ↑ 106 ↓ 42

Отзывы
Зарегистрируйтесь чтобы добавить комментарий.
Обратная связь
Copyleft ©