↑↓Torrent.by
Поиск
Логин: Регистрация
Пароль: Восстановить пароль
Загрузка...

Годунов [01-06 из 08] (2018) HDTV 1080p от Generalfilm

Скачать godunov-01-06-iz-08-2018-hdtv-1080p-ot-generalfilm.torrent
U Магнитная ссылка Размер: 14.53 GB Раздают: 103 Качают: 182 Добавлен: 2018-11-08 13:57:52
Годунов [01-06 из 08] (2018)  HDTV 1080p от Generalfilm

Название: Годунов
Год выпуска: 2018

Страна: Россия
Жанр: драма, история
Перевод: Не требуется [Русский]
Продолжительность: 00:50:27
Режиссер: Алексей Андрианов , Тимур Алпатов
В ролях: Сергей Безруков (Борис Годунов), Сергей Маковецкий (Иван Грозный), Анна Михалкова (Ирина Годунова), Светлана Ходченкова (Мария Годунова), Виктор Сухоруков (Малюта Скуратов), Андрей Мерзликин (Василий Шуйский), Александр Устюгов (Фёдор Романов), Ирина Пегова (Мария Нагая), Владимир Стеклов, Антон Кузнецов (Богдан Бельский), Александр Семчев, Федор Лавров

Описание:
Фильм о семье Годуновых, который охватывает период со времени правления Ивана Грозного до восшествия на престол Михаила Романова.

Качество: HDTV 1080p
Формат: MKV
Видео: AVC, 1920x1080 (16:9), 7050 kbps, 25 fps, 0,136 bpp
Аудио: AC3 / 2.0 / 48 kHz / 192 kbps /

Релиз:


[+] ОтчетМедиаИнфо

General
Unique ID                                : 230663566058227180682774630953920982295 (0xAD882FD85AEE1F608C0B6C2DE4636D17)
Complete name                            : E:Запись с твGodunov 2018.HDTV 1080p.RG GeneralFilmGodunov.s01.e01.2018.HDTV 1080p.by.White Smoke.R.G.Generalfilm.mkv
Format                                   : Matroska
Format version                           : Version 4 / Version 2
File size                                : 2.53 GiB
Duration                                 : 50 min
Overall bit rate mode                    : Constant
Overall bit rate                         : 7 164 kb/s
Movie name                               : Godunov.s01.e01.2018.HDTV 1080p.by.White Smoke.R.G.Generalfilm.mkv
Encoded date                             : UTC 2018-11-05 22:36:49
Writing application                      : mkvmerge v6.8.0 ('Theme for Great Cities') 64bit built on Mar  2 2014 21:34:26
Writing library                          : libebml v1.3.0 + libmatroska v1.4.1
Cover                                    : Yes
Attachments                              : cover.png

Video
ID                                       : 1
Format                                   : AVC
Format/Info                              : Advanced Video Codec
Format profile                           : High@L4.1
Format settings, CABAC                   : Yes
Format settings, ReFrames                : 3 frames
Format settings, GOP                     : M=3, N=33
Codec ID                                 : V_MPEG4/ISO/AVC
Duration                                 : 50 min
Bit rate mode                            : Constant
Bit rate                                 : 7 051 kb/s
Width                                    : 1 920 pixels
Height                                   : 1 080 pixels
Display aspect ratio                     : 16:9
Frame rate mode                          : Constant
Frame rate                               : 25.000 FPS
Standard                                 : PAL
Color space                              : YUV
Chroma subsampling                       : 4:2:0
Bit depth                                : 8 bits
Scan type                                : Progressive
Bits/(Pixel*Frame)                       : 0.136
Stream size                              : 2.41 GiB (95%)
Default                                  : Yes
Forced                                   : No
Color range                              : Limited
Color primaries                          : BT.709
Transfer characteristics                 : BT.709
Matrix coefficients                      : BT.709

Audio
ID                                       : 2
Format                                   : AC-3
Format/Info                              : Audio Coding 3
Mode extension                           : CM (complete main)
Format settings, Endianness              : Big
Codec ID                                 : A_AC3
Duration                                 : 50 min
Bit rate mode                            : Constant
Bit rate                                 : 192 kb/s
Channel(s)                               : 2 channels
Channel positions                        : Front: L R
Sampling rate                            : 48.0 kHz
Frame rate                               : 31.250 FPS (1536 spf)
Compression mode                         : Lossy
Stream size                              : 69.3 MiB (3%)
Default                                  : Yes
Forced                                   : No



Скриншоты:
[+] Всего файлов в раздаче - 6:
Godunov.s01.e01.2018.HDTV 1080p.by.White Smoke.R.G.Generalfilm.mkv2.53 GB
Godunov.s01.e02.2018.HDTV 1080p.by.White Smoke.R.G.Generalfilm.mkv2.31 GB
Godunov.s01.e03.2018.HDTV 1080p.by.White Smoke.R.G.Generalfilm.mkv2.66 GB
Godunov.s01.e04.2018.HDTV 1080p.by.White Smoke.R.G.Generalfilm.mkv2.11 GB
Godunov.s01.e05.2018.HDTV 1080p.by.White Smoke.R.G.Generalfilm.mkv2.59 GB
Godunov.s01.e06.2018.HDTV 1080p.by.White Smoke.R.G.Generalfilm.mkv2.33 GB

Текущая раздача:
ДатаКомментарии    РазмерПиры
2018-11-08 U Годунов [01-06 из 08] (2018) HDTV 1080p от Generalfilm 14.53 GB ↑ 103 ↓ 182

Показать еще раздачи по запросу годунов:
2018-11-11 U Годунов [01-08 из 08] (2018) HDTVRip-AVC от Files-x 5.94 GB ↑ 94 ↓ 189
2018-11-10 U Годунов [01-08 из 08] (2018) HDTV 1080p от Generalfilm 1К19.65 GB ↑ 172 ↓ 113
2018-11-09 U Годунов [01-08 из 08] (2018) HDTVRip-AVC от Files-x 5.94 GB ↑ 442 ↓ 591
2018-11-09 U Годунов [01-08 из 08] (2018) HDTVRip от Files-x 4.62 GB ↑ 1034 ↓ 1194
2018-11-09 U Годунов [01-08 из 08] (2018) HDTVRip 720p от MediaClub 11.36 GB ↑ 113 ↓ 85
2018-11-08 U Годунов [01-08 из 08] (2018) SATRip-AVC 5.15 GB ↑ 12 ↓ 8
2018-11-08 U Годунов [01-08 из 08] (2018) SATRip 4.94 GB ↑ 1828 ↓ 2715

Отзывы
Зарегистрируйтесь чтобы добавить комментарий.
Обратная связь
Copyleft ©