↑↓Torrent.by
Поиск
Логин: Регистрация
Пароль: Восстановить пароль
Загрузка...

Мотылек / Papillon (2017) WEB-DL 1080p | L2

Скачать motylek-papillon-2017-web-dl-1080p-l2.torrent
U Магнитная ссылка Размер: 4.95 GB Раздают: 106 Качают: 56 Добавлен: 2018-11-08 15:32:23
Мотылек / Papillon (2017) WEB-DL 1080p | L2

Название: Мотылек
Оригинальное название: Papillon
Год выхода: 2017
Жанр: драма, криминал
Режиссер: Михаэль Ноер
В ролях: Чарли Ханнэм, Рами Малек, Роланд Мюллер, Йоэль Басман, Йорик ван Вагенинген, Майкл Сока, Кристофер Фэйрбэнк, Ив Хьюсон, Томми Флэнаган, Николас Асбари

О фильме:
Взломщик сейфов по прозвищу Мотылёк получает пожизненный срок и отправляется на каторгу за убийство, которого он не совершал. Когда вокруг враги, а надежда угасает с каждым днём заключения, лишь сила духа может помочь Мотыльку обрести свободу.

Страна: Чехия, Испания, США
Студия: Czech Anglo Productions, FishCorb Films, Red Granite Pictures
Продолжительность: 02:13:14
Перевод: Любительский двухголосый, закадровый [HiWay Grope]

Файл
Кодек: H.264
Качество: WEB-DL 1080p
Видео: AVC, 1916x800 (2.40:1), 23.976 fps ~ 4445 Kbps
Звук:
AC3, 48 KHz, 6 ch ~ 384 Kb/s (русский)
AC3, 48 KHz, 6 ch ~ 384 Kb/s (английский)
Субтитры: отсутствуют

Семпл


[+] MI:

Общее
Уникальный идентификатор : 239057541142057145468679648595780184346 (0xB3D8CEC4E23B71D5A1EC5631E802291A)
Полное имя : Q:TorFPapillon.2018.1080p.mkv
Формат : Matroska
Версия формата : Version 2
Размер файла : 4,95 Гбайт
Продолжительность : 2 ч. 13 м.
Общий поток : 5319 Кбит/сек
Название фильма : Papillon.2018.1080p
Дата кодирования : UTC 2018-11-08 05:24:17
Программа кодирования : mkvmerge v5.4.0 ('Piper') built on Mar 10 2012 13:34:39
Библиотека кодирования : libebml v1.2.3 + libmatroska v1.3.0
DURATION : 02:13:14.880000000
NUMBER_OF_FRAMES : 249840
NUMBER_OF_BYTES : 383754240
_STATISTICS_WRITING_APP : mkvmerge v28.1.0 ('Morning Child') 64-bit
_STATISTICS_WRITING_DATE_UTC : 2018-10-30 05:13:18
_STATISTICS_TAGS : BPS DURATION NUMBER_OF_FRAMES NUMBER_OF_BYTES
Attachment : Yes / Yes / Yes / Yes

Видео
Идентификатор : 1
Формат : AVC
Формат/Информация : Advanced Video Codec
Профиль формата : High@L4.0
Параметр CABAC формата : Да
Параметр ReFrames формата : 5 кадров
Идентификатор кодека : V_MPEG4/ISO/AVC
Продолжительность : 2 ч. 13 м.
Битрейт : 4445 Кбит/сек
Ширина : 1916 пикселей
Высота : 800 пикселей
Соотношение сторон : 2,40:1
Частота кадров : 23,976 кадра/сек
Цветовое пространство : YUV
Субдискретизация насыщенности : 4:2:0
Битовая глубина : 8 бит
Тип развёртки : Прогрессивная
Бит/(Пиксели*Кадры) : 0.121
Размер потока : 4,14 Гбайт (84%)
Заголовок : Papillon.2018
Язык : English
Default : Да
Forced : Нет
Основные цвета : BT.709-5, BT.1361, IEC 61966-2-4, SMPTE RP177
Характеристики трансфера : BT.709-5, BT.1361
Коэффициенты матрицы : BT.709-5, BT.1361, IEC 61966-2-4 709, SMPTE RP177

Аудио #1
Идентификатор : 2
Формат : AC-3
Формат/Информация : Audio Coding 3
Расширение режима : CM (complete main)
Идентификатор кодека : A_AC3
Продолжительность : 2 ч. 13 м.
Вид битрейта : Постоянный
Битрейт : 384 Кбит/сек
Каналы : 6 каналов
Расположение каналов : Front: L C R, Side: L R, LFE
Частота : 48,0 КГц
Битовая глубина : 16 бит
Метод сжатия : С потерями
Задержка видео : 8 мс.
Размер потока : 366 Мбайт (7%)
Заголовок : HiWayGrope
Язык : Russian
Default : Да
Forced : Нет

Аудио #2
Идентификатор : 3
Формат : AC-3
Формат/Информация : Audio Coding 3
Расширение режима : CM (complete main)
Идентификатор кодека : A_AC3
Продолжительность : 2 ч. 13 м.
Вид битрейта : Постоянный
Битрейт : 384 Кбит/сек
Каналы : 6 каналов
Расположение каналов : Front: L C R, Side: L R, LFE
Частота : 48,0 КГц
Битовая глубина : 16 бит
Метод сжатия : С потерями
Задержка видео : -42 мс.
Размер потока : 366 Мбайт (7%)
Заголовок : Papillon.2018
Язык : English
Default : Нет
Forced : Нет

Меню
00:00:00.000 : en:1
00:08:17.622 : en:2
00:16:48.591 : en:3
00:21:26.910 : en:4
00:26:32.966 : en:5
00:30:40.796 : en:6
00:34:11.797 : en:7
00:44:52.145 : en:8
00:52:55.585 : en:9
00:59:04.662 : en:10
01:04:13.886 : en:11
01:12:19.328 : en:12
01:20:36.365 : en:13
01:24:09.411 : en:14
01:35:20.539 : en:15
01:40:54.039 : en:16
01:47:11.875 : en:17
01:57:04.007 : en:18
02:02:59.903 : en:19
02:05:58.539 : en:20



Скриншоты:
[+] Всего файлов в раздаче - 1:
Papillon.2018.1080p.mkv4.95 GB

Текущая раздача:
ДатаКомментарии    РазмерПиры
2018-11-08 U Мотылек / Papillon (2017) WEB-DL 1080p | L2 4.95 GB ↑ 106 ↓ 56

Показать еще раздачи по запросу мотылек:
2018-11-11 U Мотылек / Papillon (2017) BDRip 1080p от HDReactor | L2 11.64 GB ↑ 104 ↓ 80
2018-11-10 U Мотылек / Papillon (2017) BDRemux 1080p | L2 1К31.99 GB ↑ 48 ↓ 35
2018-11-09 U Мотылек / Papillon (2017) BDRip от MegaPeer | L2 1.46 GB ↑ 141 ↓ 26
2018-11-08 U Мотылек / Papillon (2017) WEB-DLRip | L2 2.18 GB ↑ 118 ↓ 59
2018-11-03 U Мотылек / Papillon (2017) WEBRip 720p | L2 1К4.24 GB ↑ 206 ↓ 138
2018-11-03 U Мотылек / Papillon (2017) WEBRip | L2 1.62 GB ↑ 275 ↓ 165
2018-01-27 U Мотылек / Papillon (1973) BDRip-AVC от HQ-ViDEO | P 2.91 GB ↑ 75 ↓ 30

Отзывы
Зарегистрируйтесь чтобы добавить комментарий.
Обратная связь
Copyleft ©