↑↓Torrent.by
Поиск
Логин: Регистрация
Пароль: Восстановить пароль
Загрузка...

Каратель / The Punished (2018) WEBRip 720p | L2

Скачать karatel-the-punished-2018-webrip-720p-l2.torrent
U Магнитная ссылка Размер: 1.93 GB Раздают: 110 Качают: 15 Добавлен: 2018-11-08 15:32:43
Каратель / The Punished (2018) WEBRip 720p | L2

Название: Каратель
Оригинальное название: The Punished
Год выхода: 2018
Жанр: Ужасы
Режиссер: Рене Перез
В ролях: Лиза Мерфи Коллинз, Николь Старк
О фильме:
Вольфганг профессиональный наемник, которого наняла состоятельная женщина, чтобы отомстить за своего внука. Но когда он встречает маленькую девочку-сироту и местного экскурсовода, он разрывается между привычными для него деньгами за выполненную работу, и вершением справделивости для невинных людей.

Страна: США
Продолжительность: 01:28:02
Перевод: Любительский (двухголосый закадровый) | HiWay Grope

Файл
Кодек: MPEG-4 AVC/x.264
Качество: WEBRip 720p
Видео: 1280x720, 23.976 fps, ~2950 kbps, 0.134 bit/pixel
Звук:
Аудио rus: AC3, 48 kHz, 2 ch, 192 Kbps
Субтитры: отсутствуют

Реклама: присутствует

Семпл

Релиз от: HiWay Grope


[+] MediaInfo:

General
Unique ID                                : 233701173119242369578352031694321359178 (0xAFD1356FA6201191ABAAD2FD181C194A)
Complete name                            : D:The.Punished.2018.720p.WEBRip.HiWayGropeThe.Punished.2018.720p.WEBRip.HiWayGrope.mkv
Format                                   : Matroska
Format version                           : Version 4 / Version 2
File size                                : 1.93 GiB
Duration                                 : 1 h 28 min
Overall bit rate mode                    : Variable
Overall bit rate                         : 3 144 kb/s
Encoded date                             : UTC 2018-11-07 05:53:29
Writing application                      : mkvmerge v17.0.0 ('Be Ur Friend') 64-bit
Writing library                          : libebml v1.3.5 + libmatroska v1.4.8

Video
ID                                       : 1
Format                                   : AVC
Format/Info                              : Advanced Video Codec
Format profile                           : High@L5
Format settings                          : CABAC / 4 Ref Frames
Format settings, CABAC                   : Yes
Format settings, RefFrames               : 4 frames
Codec ID                                 : V_MPEG4/ISO/AVC
Duration                                 : 1 h 28 min
Bit rate mode                            : Variable
Bit rate                                 : 2 950 kb/s
Maximum bit rate                         : 12.0 Mb/s
Width                                    : 1 280 pixels
Height                                   : 720 pixels
Display aspect ratio                     : 16:9
Frame rate mode                          : Constant
Frame rate                               : 23.976 (24000/1001) FPS
Standard                                 : NTSC
Color space                              : YUV
Chroma subsampling                       : 4:2:0
Bit depth                                : 8 bits
Scan type                                : Progressive
Bits/(Pixel*Frame)                       : 0.134
Stream size                              : 1.81 GiB (94%)
Language                                 : English
Default                                  : Yes
Forced                                   : No
Color range                              : Limited
Color primaries                          : BT.709
Transfer characteristics                 : BT.709
Matrix coefficients                      : BT.709

Audio
ID                                       : 2
Format                                   : AC-3
Format/Info                              : Audio Coding 3
Codec ID                                 : A_AC3
Duration                                 : 1 h 28 min
Bit rate mode                            : Constant
Bit rate                                 : 192 kb/s
Channel(s)                               : 2 channels
Channel positions                        : Front: L R
Sampling rate                            : 48.0 kHz
Frame rate                               : 31.250 FPS (1536 SPF)
Bit depth                                : 16 bits
Compression mode                         : Lossy
Stream size                              : 121 MiB (6%)
Service kind                             : Complete Main
Default                                  : Yes
Forced                                   : No




Скриншоты:
[+] Всего файлов в раздаче - 1:
The.Punished.2018.720p.WEBRip.HiWayGrope.mkv1.93 GB

Текущая раздача:
ДатаКомментарии    РазмерПиры
2018-11-08 U Каратель / The Punished (2018) WEBRip 720p | L2 1.93 GB ↑ 110 ↓ 15

Показать еще раздачи по запросу каратель:
2018-07-17 U Каратель / The Punisher [S01] (2017) WEBRip | LostFilm 8.53 GB ↑ 75 ↓ 123
2018-01-14 U Каратель / The Punisher [S01] (2017) WEBRip | LostFilm 7.38 GB ↑ 161 ↓ 82
2018-01-08 U Каратель / The Punisher [S01] (2017) WEB-DLRip-AVC | Кубик в Кубе, AlexFilm, LostFilm, NewStudio 7.16 GB ↑ 41 ↓ 21
2017-12-14 U Каратель / The Punisher [S01] (2017) WEBRip-AVC | NewStudio 14.08 GB ↑ 86 ↓ 54
2017-12-12 U Каратель / The Punisher [S01] (2017) WEBRip от Generalfilm | КПК | NewStudio 2.56 GB ↑ 103 ↓ 43
2017-11-30 U Каратель / The Punisher [S01] (2017) WEBRip | Jaskier 7.87 GB ↑ 72 ↓ 60
2017-11-30 U Каратель / The Punisher [S01] (2017) WEB-DLRip | Profix Media 5.68 GB ↑ 131 ↓ 65

Отзывы
Зарегистрируйтесь чтобы добавить комментарий.
Обратная связь
Copyleft ©