↑↓Torrent.by
Поиск
Логин: Регистрация
Пароль: Восстановить пароль
Загрузка...

Кислота (2018) WEB-DL 1080p | iTunes

Скачать kislota-2018-web-dl-1080p-itunes.torrent
U Магнитная ссылка Размер: 3.68 GB Раздают: 158 Качают: 66 Добавлен: 2018-11-09 04:12:02
Кислота (2018) WEB-DL 1080p | iTunes

Название: Кислота
Год выпуска: 2018
Жанр:  Драма
Режиссёр: Александр Горчилин
В ролях: Филипп Авдеев, Александр Кузнецов, Арина Шевцова, Савва Савельев, Александра Ребенок, Роза Хаируллина, Дмитрий Куличков, Елена Морозова, Алексей Агранович, Софья Синицына

Описание:
Саша и Петя живут безбашенной жизнью музыкантов современной техно-Москвы: громкие вечеринки, взлеты и падения, колесо нестабильных отношений с окружающими и собой. Они — поколение двадцатилетних, которые часто слышали слова «любовь», «семья» и «возможности», но хорошо усвоили лишь чувство разъедающего изнутри одиночества. Но вдруг в их жизни происходит событие, которое заставляет обоих честно взглянуть на себя.

Страна: Россия
Студия: Кинокомпания «Слон», TRUEMEN Pictures  
Продолжительность: 01:33:36
Язык: Русский

Файл
Формат: MKV
Качество: WEB-DL 1080p
Видео: 1920x804 (2.40:1), 25 fps, MPEG-4 AVC ~ 5238 kbps avg, 0.136 bit/pixel
Звук: AC3, 48 kHz, 6 ch, ~384.00 kbps avg | русский | iTunes

Субтитры: Отсутствуют


[+] Инфо-файл
Общее
Уникальный идентификатор                 : 66059773396707445212133446605909696336 (0x31B2A64A3F2AAA8C0F4C2AF183AA9F50)
Полное имя                               : KISLOTA (2018) WEB-DL 1080p).mkv
Формат                                   : Matroska
Версия формата                           : Version 4 / Version 2
Размер файла                             : 3,68 Гбайт
Продолжительность                        : 1 ч. 33 м.
Общий поток                              : 5623 Кбит/сек
Название фильма                          : Кислота (2018)
Дата кодирования                         : UTC 2018-11-08 19:11:11
Программа кодирования                    : mkvmerge v27.0.0 ('Metropolis') 64-bit
Библиотека кодирования                   : libebml v1.3.6 + libmatroska v1.4.9

Видео
Идентификатор                            : 1
Формат                                   : AVC
Формат/Информация                        : Advanced Video Codec
Профиль формата                          : High@L4.1
Настройки формата                        : CABAC / 4 Ref Frames
Параметр CABAC формата                   : Да
Параметр RefFrames формата               : 4 кадра
Идентификатор кодека                     : V_MPEG4/ISO/AVC
Продолжительность                        : 1 ч. 33 м.
Битрейт                                  : 5238 Кбит/сек
Ширина                                   : 1920 пикселей
Высота                                   : 804 пикселя
Соотношение сторон                       : 2,40:1
Режим частоты кадров                     : Постоянный
Частота кадров                           : 25,000 кадров/сек
Цветовое пространство                    : YUV
Субдискретизация насыщенности            : 4:2:0
Битовая глубина                          : 8 бит
Тип развёртки                            : Прогрессивная
Бит/(Пиксели*Кадры)                      : 0.136
Размер потока                            : 3,42 Гбайт (93%)
Заголовок                                : KISLOTA (2018) WEB-DL 1080p
Язык                                     : Russian
Default                                  : Да
Forced                                   : Нет

Аудио
Идентификатор                            : 2
Формат                                   : AC-3
Формат/Информация                        : Audio Coding 3
Идентификатор кодека                     : A_AC3
Продолжительность                        : 1 ч. 33 м.
Вид битрейта                             : Постоянный
Битрейт                                  : 384 Кбит/сек
Каналы                                   : 6 каналов
Расположение каналов                     : Front: L C R, Side: L R, LFE
Частота                                  : 48,0 КГц
Частота кадров                           : 31,250 кадров/сек (1536 SPF)
Битовая глубина                          : 16 бит
Метод сжатия                             : С потерями
Размер потока                            : 257 Мбайт (7%)
Заголовок                                : iTunes | KISLOTA (2018) WEB-DL 1080p
Язык                                     : Russian
Default                                  : Да
Forced                                   : Нет



Скриншоты:
[+] Всего файлов в раздаче - 1:
KISLOTA (2018) WEB-DL 1080p).mkv3.68 GB

Текущая раздача:
ДатаКомментарии    РазмерПиры
2018-11-09 U Кислота (2018) WEB-DL 1080p | iTunes 3.68 GB ↑ 158 ↓ 66

Похожие раздачи по запросу - кислота:
Вчера U Кислота (2018) WEB-DLRip от Scarabey | iTunes 1.46 GB ↑ 50 ↓ 9
2018-11-10 U Кислота (2018) WEB-DLRip от MegaPeer | iTunes 2К744.45 MB ↑ 98 ↓ 17
2018-11-09 U Кислота (2018) WEB-DLRip | iTunes 1.37 GB ↑ 211 ↓ 92
2018-10-07 U Сталинская кислота (2016) WEBRip 1080p 180.08 MB ↑ 149 ↓ 32

Отзывы
Зарегистрируйтесь чтобы добавить комментарий.
Обратная связь
Copyleft ©