↑↓torrent.by
Поиск
Логин: Регистрация
Пароль: Восстановить пароль

Миссия невыполнима: Последствия / Mission: Impossible - Fallout (2018) WEB-DLRip-AVC | IMAX Edition | L

Скачать missiya-nevypolnima-posledstviya-mission-impossible-fallout-2018-web-dlrip-avc-imax-edition-l.torrent
U Магнитная ссылка Размер: 745.25 MB Раздают: 573 Качают: 46 Добавлен: 2018-11-10 12:42:21
Миссия невыполнима: Последствия / Mission: Impossible - Fallout (2018) WEB-DLRip-AVC | IMAX Edition | L

Название: Миссия невыполнима: Последствия
Оригинальное название: Mission: Impossible - Fallout
Год выхода: 2018
Жанр:  боевик, триллер, приключения
Режиссер: Кристофер МакКуорри / Christopher McQuarrie

В ролях: Том Круз, Ребекка Фергюсон, Генри Кавилл, Мишель Монахэн, Ванесса Кирби, Уэс Бентли, Саймон Пегг, Анджела Бассетт, Алек Болдуин, Винг Реймз, Шон Харрис

О фильме:
Итан Хант и его команда, а также недавно примкнувшие к ним союзники, вынуждены действовать наперегонки со временем, когда новая миссия идет не по плану.

Выпущено: США, Китай, Франция, Норвегия
Продолжительность: 02:27:41
Перевод: Любительский (многоголосый закадровый)
Субтитры: Английские

РЕКЛАМЫ НЕТ!

Файл
Формат: MKV
Качество: WEB-DLRip-AVC
Видео: 720x380, ~639 kbps, 23.976 fps
Аудио: AAC, 2 ch, ~64 kbps

***Релиз от: -=DoMiNo=-


[+] M/I
General
Unique ID                   : 140809706820386860291585848800094973381 (0x69EEF68C946BD7890C9C5E12BFEBEDC5)
Complete name               : Миссия невыполнима- Последствия_(2018)_WEB_DLRIP-AVC_[-=DoMiNo=-].mkv
Format                      : Matroska
Format version              : Version 4
File size                   : 743 MiB
Duration                    : 2 h 27 min
Overall bit rate            : 703 kb/s
Movie name                  : Миссия невыполнима: Последствия
Deion                 : Шестая часть знаменитой серии боевиков «Миссия: невыполнима». Итан Хант и его команда, а также недавно примкнувшие к ним союзники, вынуждены действовать наперегонки со временем, когда новая миссия идет не по плану.
Encoded date                : UTC 2018-11-09 15:44:47
Writing application         : mkvmerge v28.2.0 ('The Awakening') 64-bit
Writing library             : libebml v1.3.6 + libmatroska v1.4.9
Attachments                 : poster.jpg
COMPOSER                    : Lorne Balfe
COUNTRY                     : United States
DATE                        : 2018-07-13
DIRECTOR                    : Christopher McQuarrie
GENRE                       : боевик, триллер
ITUNEXTC                    : mpaa|PG-13|300|
MEDIA_TYPE                  : 9
ORIGINAL_TITLE              : Mission: Impossible - Fallout
PRODUCER                    : J.J. Abrams, Tom Cruise, David Ellison, Dana Goldberg, Raphael Benoliel, Bryan Burk, Don Granger, Christopher McQuarrie, Jake Myers
PUBLISHER                   : Paramount, Bad Robot, Skydance Media, TC Productions, Alibaba Pictures Group
RATING                      : 7.30
WRITER                      : Christopher McQuarrie

Video
ID                          : 1
Format                      : AVC
Format/Info                 : Advanced Video Codec
Format profile              : High@L4.1
Format settings             : CABAC / 10 Ref Frames
Format settings, CABAC      : Yes
Format settings, ReFrames   : 10 frames
Codec ID                    : V_MPEG4/ISO/AVC
Duration                    : 2 h 27 min
Bit rate                    : 639 kb/s
Width                       : 720 pixels
Height                      : 380 pixels
Display aspect ratio        : 1.895
Frame rate mode             : Constant
Frame rate                  : 23.976 (24000/1001) FPS
Color space                 : YUV
Chroma subsampling          : 4:2:0
Bit depth                   : 8 bits
Scan type                   : Progressive
Bits/(Pixel*Frame)          : 0.097
Stream size                 : 675 MiB (91%)
Title                       : RIP_BY_-=DoMiNo=-
Writing library             : x264 core 157 r2901M 7d0ff22
Encoding settings           : cabac=1 / ref=10 / deblock=1:-3:-3 / analyse=0x3:0x133 / me=umh / subme=11 / psy=1 / psy_rd=1.05:0.20 / mixed_ref=1 / me_range=32 / chroma_me=1 / trellis=2 / 8x8dct=1 / cqm=0 / deadzone=21,11 / fast_pskip=1 / chroma_qp_offset=-3 / threads=6 / lookahead_threads=1 / sliced_threads=0 / nr=0 / decimate=1 / interlaced=0 / bluray_compat=0 / constrained_intra=0 / bframes=10 / b_pyramid=2 / b_adapt=2 / b_bias=0 / direct=3 / weightb=1 / open_gop=0 / weightp=2 / keyint=240 / keyint_min=24 / scenecut=40 / intra_refresh=0 / rc_lookahead=40 / rc=2pass / mbtree=1 / bitrate=639 / ratetol=1.0 / qcomp=0.70 / qpmin=0 / qpmax=69 / qpstep=4 / cplxblur=20.0 / qblur=0.5 / ip_ratio=1.40 / aq=1:1.00
Language                    : English
Default                     : Yes
Forced                      : No
Color range                 : Limited
Color primaries             : BT.709
Transfer characteristics    : BT.709
Matrix coefficients         : BT.709

Audio
ID                          : 2
Format                      : AAC LC SBR
Format/Info                 : Advanced Audio Codec Low Complexity with Spectral Band Replication
Commercial name             : HE-AAC
Format settings             : Implicit
Codec ID                    : A_AAC-2
Duration                    : 2 h 27 min
Channel(s)                  : 2 channels
Channel layout              : L R
Sampling rate               : 48.0 kHz
Frame rate                  : 23.438 FPS (2048 SPF)
Compression mode            : Lossy
Title                       : MVO
Language                    : Russian
Default                     : Yes
Forced                      : No

Text
ID                          : 3
Format                      : UTF-8
Codec ID                    : S_TEXT/UTF8
Codec ID/Info               : UTF-8 Plain Text
Duration                    : 2 h 19 min
Bit rate                    : 46 b/s
Count of elements           : 1547
Stream size                 : 47.6 KiB (0%)
Title                       : ENG
Language                    : English
Default                     : No
Forced                      : No

Menu
00:00:00.000                : :1
00:10:35.000                : :2
00:17:09.000                : :3
00:26:54.000                : :4
00:35:53.000                : :5
00:49:14.000                : :6
00:59:56.000                : :7
01:10:18.000                : :8
01:17:01.000                : :9
01:28:22.000                : :10
01:39:02.000                : :11
01:46:19.000                : :12
01:55:37.000                : :13
02:03:02.000                : :14
02:13:52.000                : :15
02:19:38.000                : :16



Скриншоты:
[+] Всего файлов в раздаче - 1:
Миссия невыполнима- Последствия_(2018)_WEB_DLRIP-AVC_[-=DoMiNo=-].mkv745.25 MB

Похожие раздачи по запросу - миссия:
2020-05-14 U Секретные материалы. Миссия Руста: неизвестные факты (2020) SATRip 497.11 MB ↑ 52 ↓ 9

Отзывы
Зарегистрируйтесь чтобы добавить комментарий.
Обратная связь
Copyleft ©