↑↓Torrent.by
Поиск
Логин: Регистрация
Пароль: Восстановить пароль
Загрузка...

Монстры на каникулах 3: Море зовёт / Hotel Transylvania 3: Summer Vacation (2018) BDRip 1080p от селезень | Лицензия

Скачать monstry-na-kanikulah-3-more-zovet-hotel-transylvania-summer-vacation-2018-bdrip-1080p-ot-selezen-licenziya.torrent
U Магнитная ссылка Размер: 13.35 GB Раздают: 65 Качают: 14 Добавлен: 2018-11-11 08:13:52
Монстры на каникулах 3: Море зовёт / Hotel Transylvania 3: Summer Vacation (2018) BDRip 1080p от селезень | Лицензия

Название: Монстры на каникулах 3: Море зовёт
Оригинальное название: Hotel Transylvania 3: Summer Vacation
Год выхода: 2018
Жанр: Мультфильм, фэнтези, комедия, семейный, полнометражный
Режиссер: Генндий Тартаковский
В ролях: Мэл Брукс, Адам Сэндлер, Селена Гомес, Энди Сэмберг, Кэтрин Хан, Фрэн Дрешер, Стив Бушеми, Дэвид Спейд, Тара Стронг, Кигэн-Майкл Ки

О фильме: На этот раз Дракула вместе со своими друзьями отправляется в круиз на шикарном лайнере. Развлечения там на любой вкус: от монстробаскетбола и экзотических экскурсий, до лунных ванн. Неожиданно Дракула влюбляется в капитана корабля — загадочную и прекрасную Эрику, и его дочка Мэвис понимает, что поездка может превратиться в кошмар: ведь Эрика хранит ужасный секрет, который ставит под угрозу существование всех монстров!

Страна: США
Студия: Columbia Pictures, Media Rights Capital (MRC), Sony Pictures Animation
Продолжительность: 01:37:23
Перевод: Дублированный | Лицензия

Качество: BDRip 1080p
Видео: MPEG-4 AVC, 1920x1038, 16.8 Mbit/s, 23.976 fps
Звук:
Аудио #01: 48 kHz, AC3, 5.1, 640 Kbps | Лицензия | RUS |
Аудио #02: 48 kHz, AC3, 5.1, 640 Kbps | Лицензия | UKR |
Аудио #03: 48 kHz, DTS, 5.1, 1510 Kbps | Оригинал |  ENG |
Субтитры: Русские (forced, full), украинские (full), английские (full, SDH)

Релиз:


[+] MI
General
Unique ID                   : 110743306283550875448098341604868863950 (0x5350628D78DF2BFF882E0DA2E2B9B7CE)
Complete name               : D:Video111Hotel.Transylvania.3.Summer.Vacation.2018.BDRip.1080p.selezen.mkv
Format                      : Matroska
Format version              : Version 4
File size                   : 13.4 GiB
Duration                    : 1 h 37 min
Overall bit rate            : 19.6 Mb/s
Movie name                  : Hotel Transylvania 3 Summer Vacation (2018) from селезень
Encoded date                : UTC 2018-11-10 09:56:51
Writing application         : mkvmerge v28.2.0 ('The Awakening') 64-bit
Writing library             : libebml v1.3.6 + libmatroska v1.4.9

Video
ID                          : 1
Format                      : AVC
Format/Info                 : Advanced Video Codec
Format profile              : High@L4.1
Format settings             : CABAC / 4 Ref Frames
Format settings, CABAC      : Yes
Format settings, ReFrames   : 4 frames
Codec ID                    : V_MPEG4/ISO/AVC
Duration                    : 1 h 37 min
Bit rate                    : 16.8 Mb/s
Width                       : 1 920 pixels
Height                      : 1 038 pixels
Display aspect ratio        : 1.85:1
Frame rate mode             : Constant
Frame rate                  : 23.976 (24000/1001) FPS
Color space                 : YUV
Chroma subsampling          : 4:2:0
Bit depth                   : 8 bits
Scan type                   : Progressive
Bits/(Pixel*Frame)          : 0.352
Stream size                 : 11.5 GiB (86%)
Writing library             : x264 core 157 r2867+103 0d6443f t_mod_Custom_2 [8-bit@all X86_64]
Encoding settings           : cabac=1 / ref=4 / deblock=1:-2:-2 / analyse=0x3:0x133 / me=umh / subme=11 / psy=1 / fade_compensate=0.00 / psy_rd=0.75:0.00 / mixed_ref=1 / me_range=64 / chroma_me=1 / trellis=2 / 8x8dct=1 / cqm=0 / deadzone=21,11 / fast_pskip=0 / chroma_qp_offset=-2 / threads=36 / lookahead_threads=6 / sliced_threads=0 / nr=0 / decimate=1 / interlaced=0 / bluray_compat=0 / constrained_intra=0 / fgo=0 / bframes=9 / b_pyramid=2 / b_adapt=2 / b_bias=0 / direct=3 / weightb=1 / open_gop=0 / weightp=2 / keyint=250 / keyint_min=23 / scenecut=40 / intra_refresh=0 / rc=crf / mbtree=0 / crf=15.0000 / qcomp=0.60 / qpmin=0:0:0 / qpmax=36:36:36 / qpstep=4 / ip_ratio=1.40 / pb_ratio=1.30 / aq=2:0.82 / aq-sensitivity=10.00 / aq-factor=1.00:1.00:1.00 / aq2=0 / aq3=0 / zones=312,550,crf=11.5/988,1093,crf=12.0/1697,1758,crf=11.5/2135,2140,crf=11.5/3119,3196,crf=11.5/3268,3323,crf=11.5/3866,4046,crf=12.0/5639,5782,crf=12.0/6785,7177,crf=11.5/9157,9168,crf=11.5/9173,9180,crf=11.5/9182,9210,crf=11.5/10938,11213,crf=11.5/12429,12659,crf=11.5/14399,14698,crf=11.8/15393,15472,crf=11.5/16259,17177,crf=11.5/18081,18726,crf=11.5/18761,18853,crf=12.0/19680,19823,crf=11.5/20877,20925,crf=12.0/21388,22103,crf=11.8/22267,22463,crf=11.5/22595,22635,crf=11.5/23066,23329,crf=11.5/24612,24823,crf=11.5/24946,25423,crf=11.5/26724,27213,crf=11.5/29760,29820,crf=12.0/29963,30081,crf=12.0/30618,30969,crf=11.5/37483,37672,crf=11.5/40900,40907,crf=11.5/42085,42136,crf=11.5/43618,43681,crf=11.5/45792,45837,crf=11.5/46060,46091,crf=11.5/46847,46921,crf=11.5/48043,48190,crf=11.5/48247,48315,crf=11.5/48566,48684,crf=11.5/49101,49129,crf=11.5/49732,49949,crf=11.5/50588,50666,crf=11.5/50799,51242,crf=11.5/51315,51342,crf=11.5/54232,54767,crf=11.5/56857,56880,crf=11.5/56966,57086,crf=11.5/57337,57779,crf=11.5/57840,58021,crf=11.5/58087,58153,crf=11.5/58210,58781,crf=11.5/59028,59095,crf=11.5/64320,64339,crf=11.5/72082,72229,crf=11.5/73571,73683,crf=11.5/87701,87730,crf=11.5/87969,88031,crf=11.5/90919,91086,crf=11.5/92723,92762,crf=11.5/97543,97842,crf=11.5/97868,97961,crf=11.5/98194,98875,crf=11.5/98967,99341,crf=11.5/99432,99887,crf=11.5/107835,108156,crf=11.5/110871,110964,crf=11.5/112059,112321,crf=11.5/117545,117624,crf=11.5/117648,117682,crf=11.5/119448,119526,crf=11.5/120374,120913,crf=12.0
Language                    : English
Default                     : Yes
Forced                      : No
Color range                 : Limited
Color primaries             : BT.709
Matrix coefficients         : BT.709

Audio #1
ID                          : 2
Format                      : AC-3
Format/Info                 : Audio Coding 3
Commercial name             : Dolby Digital
Codec ID                    : A_AC3
Duration                    : 1 h 37 min
Bit rate mode               : Constant
Bit rate                    : 640 kb/s
Channel(s)                  : 6 channels
Channel layout              : L R C LFE Ls Rs
Sampling rate               : 48.0 kHz
Frame rate                  : 31.250 FPS (1536 SPF)
Bit depth                   : 16 bits
Compression mode            : Lossy
Stream size                 : 446 MiB (3%)
Title                       : Dub [License]
Language                    : Russian
Service kind                : Complete Main
Default                     : Yes
Forced                      : Yes

Audio #2
ID                          : 3
Format                      : AC-3
Format/Info                 : Audio Coding 3
Commercial name             : Dolby Digital
Codec ID                    : A_AC3
Duration                    : 1 h 37 min
Bit rate mode               : Constant
Bit rate                    : 640 kb/s
Channel(s)                  : 6 channels
Channel layout              : L R C LFE Ls Rs
Sampling rate               : 48.0 kHz
Frame rate                  : 31.250 FPS (1536 SPF)
Bit depth                   : 16 bits
Compression mode            : Lossy
Stream size                 : 446 MiB (3%)
Title                       : Dub [License]
Language                    : Ukrainian
Service kind                : Complete Main
Default                     : No
Forced                      : No

Audio #3
ID                          : 4
Format                      : DTS
Format/Info                 : Digital Theater Systems
Codec ID                    : A_DTS
Duration                    : 1 h 37 min
Bit rate mode               : Constant
Bit rate                    : 1 509 kb/s
Channel(s)                  : 6 channels
Channel layout              : C L R Ls Rs LFE
Sampling rate               : 48.0 kHz
Frame rate                  : 93.750 FPS (512 SPF)
Bit depth                   : 24 bits
Compression mode            : Lossy
Stream size                 : 1.03 GiB (8%)
Title                       : Original
Language                    : English
Default                     : No
Forced                      : No

Text #1
ID                          : 5
Format                      : UTF-8
Codec ID                    : S_TEXT/UTF8
Codec ID/Info               : UTF-8 Plain Text
Duration                    : 1 h 36 min
Bit rate                    : 0 b/s
Count of elements           : 5
Stream size                 : 171 Bytes (0%)
Title                       : Forced
Language                    : Russian
Default                     : Yes
Forced                      : Yes

Text #2
ID                          : 6
Format                      : UTF-8
Codec ID                    : S_TEXT/UTF8
Codec ID/Info               : UTF-8 Plain Text
Duration                    : 1 h 36 min
Bit rate                    : 76 b/s
Count of elements           : 1118
Stream size                 : 54.4 KiB (0%)
Title                       : Full
Language                    : Russian
Default                     : No
Forced                      : No

Text #3
ID                          : 7
Format                      : UTF-8
Codec ID                    : S_TEXT/UTF8
Codec ID/Info               : UTF-8 Plain Text
Duration                    : 1 h 36 min
Bit rate                    : 71 b/s
Count of elements           : 1118
Stream size                 : 50.4 KiB (0%)
Title                       : Full
Language                    : Ukrainian
Default                     : No
Forced                      : No

Text #4
ID                          : 8
Format                      : UTF-8
Codec ID                    : S_TEXT/UTF8
Codec ID/Info               : UTF-8 Plain Text
Duration                    : 1 h 26 min
Bit rate                    : 47 b/s
Count of elements           : 1098
Stream size                 : 30.1 KiB (0%)
Title                       : Full
Language                    : English
Default                     : No
Forced                      : No

Text #5
ID                          : 9
Format                      : UTF-8
Codec ID                    : S_TEXT/UTF8
Codec ID/Info               : UTF-8 Plain Text
Duration                    : 1 h 30 min
Bit rate                    : 65 b/s
Count of elements           : 1629
Stream size                 : 43.8 KiB (0%)
Title                       : SDH
Language                    : English
Default                     : No
Forced                      : No

Text #6
ID                          : 10
Format                      : UTF-8
Codec ID                    : S_TEXT/UTF8
Codec ID/Info               : UTF-8 Plain Text
Duration                    : 1 h 30 min
Bit rate                    : 90 b/s
Count of elements           : 1629
Stream size                 : 60.5 KiB (0%)
Title                       : SDH Colored
Language                    : English
Default                     : No
Forced                      : No

Menu
00:00:00.000                : en:00:00:00.000
00:04:28.935                : en:00:04:28.935
00:09:34.824                : en:00:09:34.824
00:16:02.044                : en:00:16:02.044
00:20:03.077                : en:00:20:03.077
00:24:34.932                : en:00:24:34.932
00:31:12.537                : en:00:31:12.537
00:36:49.207                : en:00:36:49.207
00:44:04.725                : en:00:44:04.725
00:49:57.703                : en:00:49:57.703
00:54:49.745                : en:00:54:49.745
01:00:34.881                : en:01:00:34.881
01:06:12.010                : en:01:06:12.010
01:10:32.270                : en:01:10:32.270
01:13:46.380                : en:01:13:46.380
01:24:56.550                : en:01:24:56.550



Скриншоты:
[+] Всего файлов в раздаче - 1:
Hotel.Transylvania.3.Summer.Vacation.2018.BDRip.1080p.selezen.mkv13.35 GB

Текущая раздача:
ДатаКомментарии    РазмерПиры
2018-11-11 U Монстры на каникулах 3: Море зовёт / Hotel Transylvania 3: Summer Vacation (2018) BDRip 1080p от селезень | Лицензия 13.35 GB ↑ 65 ↓ 14

Показать еще раздачи по запросу монстры:
2018-11-11 U Монстры на каникулах 3: Море зовёт / Hotel Transylvania 3: Summer Vacation (2018) BDRip 1080p от qqss44 & MegaPeer | Лицензия 5.54 GB ↑ 501 ↓ 25
2018-11-11 U Монстры на каникулах 3: Море зовёт / Hotel Transylvania 3: Summer Vacation (2018) BDRip 720p от селезень | Лицензия 5.15 GB ↑ 63 ↓ 21
2018-11-10 U Монстры на каникулах 3: Море зовёт / Hotel Transylvania 3: Summer Vacation (2018) BDRip от MegaPeer | Лицензия 1.46 GB ↑ 194 ↓ 69
2018-10-08 U Монстры на каникулах 3: Море зовёт / Hotel Transylvania 3: Summer Vacation (2018) UHD BDRemux 2160p от TeamHD | 4K | HDR | iTunes 38.12 GB ↑ 41 ↓ 15
2018-09-30 U Монстры на каникулах 3: Море зовёт / Hotel Transylvania 3: Summer Vacation (2018) BDRip 1080p от qqss44 & MegaPeer | iTunes 5.36 GB ↑ 429 ↓ 168
2018-09-30 U Монстры на каникулах 3: Море зовёт / Hotel Transylvania 3: Summer Vacation (2018) HDRip от Scarabey | iTunes 747.04 MB ↑ 131 ↓ 16
2018-09-30 U Монстры на каникулах 3: Море зовёт / Hotel Transylvania 3: Summer Vacation (2018) BDRip-AVC от HELLYWOOD | iTunes 1.40 GB ↑ 311 ↓ 41

Отзывы
Зарегистрируйтесь чтобы добавить комментарий.
Обратная связь
Copyleft ©