↑↓Torrent.by
Поиск
Логин: Регистрация
Пароль: Восстановить пароль

Убийца 2. Против всех / Sicario: Day of the Soldado (2018) BDRip 1080p от qqss44 & MegaPeer | iTunes

Скачать ubiyca-2-protiv-vseh-sicario-day-of-the-soldado-2018-bdrip-1080p-ot-qqss44-megapeer-itunes.torrent
U Магнитная ссылка Размер: 7.53 GB Раздают: 220 Качают: 31 Добавлен: 2018-11-12 12:15:34
Убийца 2. Против всех / Sicario: Day of the Soldado (2018) BDRip 1080p от qqss44 & MegaPeer | iTunes

Анонсы 1080p от qqss44

Информация о фильме
Название: Убийца 2. Против всех
Оригинальное название: Sicario 2: Day of the Soldado
Год выпуска: 2018
Жанр: Боевик, триллер, драма, криминал
Режиссер: Стефано Соллима
В ролях: Бенисио Дель Торо, Джош Бролин, Изабела Монер, Джеффри Донован, Кэтрин Кинер, Мануэль Рульфо, Мэттью Модайн, Шей Уигэм, Элиас Гарза, Ховард Фергюсон мл.

О фильме:
Обстановка на американо-мексиканской границе накаляется, когда наркокартели начинают переправлять в США террористов. Чтобы дать им отпор федеральный агент Мэтт Грейвер вынужден вновь объединиться с не самым надежным напарником — Алехандро.

Страна: США , Италия
Студия: Black Label Media,Rai Cinema,Thunder Road Pictures
Продолжительность: 02:02:24
Перевод: Дублированный | iTunes

Файл
Формат: MKV, BDRip 1080p
Видео: MPEG-4 AVC, 8420 Кбит/с, 1920x800
Aудио#1: [RUS] AC3 | 48 KHz | 5.1 (Front: L С R Side: L R) + LFE | ~384 kbps
Субтитры: русские форсированные (стилизованные, анимированные, вшиты в видео)
Релиз от:


[+] МИ


Общее
Уникальный идентификатор                 : 173221393890177332420050271751125277010 (0x82513A1967D62BDBAE4C8B58A49F1952)
Полное имя                               : H:Sicario.Day.of.the.Soldado.(2018).BDRip-1080p.MegaPeer.(qqss44).mkv
Формат                                   : Matroska
Версия формата                           : Version 2
Размер файла                             : 7,53 Гбайт
Продолжительность                        : 2 ч. 2 м.
Общий поток                              : 8803 Кбит/сек
Название фильма                          : Sicario.Day.of.the.Soldado.(2018).BDRip-1080p.MegaPeer.(qqss44)
Дата кодирования                         : UTC 2018-11-11 11:44:41
Программа кодирования                    : mkvmerge v7.8.0 ('River Man') 32bit built on Apr  3 2015 12:11:22
Библиотека кодирования                   : libebml v1.3.1 + libmatroska v1.4.2

Видео
Идентификатор                            : 1
Формат                                   : AVC
Формат/Информация                        : Advanced Video Codec
Профиль формата                          : High@L4.1
Параметр CABAC формата                   : Да
Параметр ReFrames формата                : 5 кадров
Идентификатор кодека                     : V_MPEG4/ISO/AVC
Продолжительность                        : 2 ч. 2 м.
Битрейт                                  : 8420 Кбит/сек
Ширина                                   : 1920 пикселей
Высота                                   : 800 пикселей
Соотношение сторон                       : 2,40:1
Режим частоты кадров                     : Постоянный
Частота кадров                           : 23,976 (24000/1001) кадра/сек
Цветовое пространство                    : YUV
Субдискретизация насыщенности            : 4:2:0
Битовая глубина                          : 8 бит
Тип развёртки                            : Прогрессивная
Бит/(Пиксели*Кадры)                      : 0.229
Размер потока                            : 7,05 Гбайт (94%)
Библиотека кодирования                   : x264 core 152 r2851 ba24899
Настройки программы                      : cabac=1 / ref=5 / deblock=1:-3:-3 / analyse=0x3:0x113 / me=umh / subme=11 / psy=1 / psy_rd=1.00:0.00 / mixed_ref=1 / me_range=32 / chroma_me=1 / trellis=2 / 8x8dct=1 / cqm=0 / deadzone=21,11 / fast_pskip=0 / chroma_qp_offset=-2 / threads=12 / lookahead_threads=2 / sliced_threads=0 / nr=0 / decimate=0 / interlaced=0 / bluray_compat=0 / constrained_intra=0 / bframes=9 / b_pyramid=2 / b_adapt=2 / b_bias=0 / direct=3 / weightb=1 / open_gop=0 / weightp=2 / keyint=250 / keyint_min=23 / scenecut=40 / intra_refresh=0 / rc_lookahead=40 / rc=2pass / mbtree=0 / bitrate=8420 / ratetol=1.0 / qcomp=0.70 / qpmin=0 / qpmax=69 / qpstep=4 / cplxblur=20.0 / qblur=0.5 / vbv_maxrate=50000 / vbv_bufsize=62500 / nal_hrd=none / filler=0 / ip_ratio=1.40 / pb_ratio=1.30 / aq=3:0.70
Язык                                     : English
Default                                  : Да
Forced                                   : Нет

Аудио
Идентификатор                            : 2
Формат                                   : AC-3
Формат/Информация                        : Audio Coding 3
Расширение режима                        : CM (complete main)
Параметр Endianness формата              : Big
Идентификатор кодека                     : A_AC3
Продолжительность                        : 2 ч. 2 м.
Вид битрейта                             : Постоянный
Битрейт                                  : 384 Кбит/сек
Каналы                                   : 6 каналов
Расположение каналов                     : Front: L C R, Side: L R, LFE
Частота                                  : 48,0 КГц
Частота кадров                           : 31,250 кадров/сек (1536 spf)
Метод сжатия                             : С потерями
Размер потока                            : 336 Мбайт (4%)
Язык                                     : Russian
Default                                  : Да
Forced                                   : Нет

Меню
00:00:00.000                             : en:00:00:00.000
00:06:38.189                             : en:00:06:38.189
00:14:45.593                             : en:00:14:45.593
00:18:48.502                             : en:00:18:48.502
00:27:08.335                             : en:00:27:08.335
00:34:08.964                             : en:00:34:08.964
00:42:28.671                             : en:00:42:28.671
00:51:10.442                             : en:00:51:10.442
01:00:58.071                             : en:01:00:58.071
01:09:20.114                             : en:01:09:20.114
01:14:26.796                             : en:01:14:26.796
01:23:24.958                             : en:01:23:24.958
01:28:41.358                             : en:01:28:41.358
01:35:38.900                             : en:01:35:38.900
01:41:44.348                             : en:01:41:44.348
01:46:15.494                             : en:01:46:15.494




Скриншоты:
[+] Всего файлов в раздаче - 1:
Sicario.Day.of.the.Soldado.(2018).BDRip-1080p.MegaPeer.(qqss44).mkv7.53 GB

Похожие раздачи по запросу - убийца:
2019-10-09 U Марлина, убийца в четырёх актах / Marlina si pembunuh dalam empat babak (2017) BDRip 1080p | HDRezka Studio 6.61 GB ↑ 68 ↓ 13
2019-10-09 U Марлина, убийца в четырёх актах / Marlina si pembunuh dalam empat babak (2017) HDRip | HDRezka Studio 1.46 GB ↑ 104 ↓ 17
2018-09-20 U Убийца 2. Против всех / Sicario: Day of the Soldado (2018) WEB-DL 1080p от TeamHD | A 5.14 GB ↑ 194 ↓ 112
2016-09-14 U Я не серийный убийца / I Am Not a Serial Killer (2016) WEB-DL 1080p | L 4.40 GB ↑ 664 ↓ 79

Отзывы
Зарегистрируйтесь чтобы добавить комментарий.
Обратная связь
Copyleft ©