↑↓torrent.by
Поиск
Логин: Регистрация
Пароль: Восстановить пароль

Повелитель тьмы: другая история мира / Isekai Maou to Shoukan Shoujo no Dorei Majutsu Omega [S02] (2021) WEBRip 1080p от KORSARS | AniDUB

Скачать povelitel-tmy-drugaya-istoriya-mira-isekai-maou-to-shoukan-shoujo-no-dorei-majutsu-omega-s02-2021-webrip-1080p-ot-korsars-anidub.torrent
U Магнитная ссылка Размер: 13.77 GB Раздают: 3 Качают: 4 Добавлен: 2021-08-29 06:00:20
Повелитель тьмы: другая история мира / Isekai Maou to Shoukan Shoujo no Dorei Majutsu Omega [S02] (2021) WEBRip 1080p от KORSARS | AniDUB

Название: Повелитель тьмы: другая история мира
Оригинальное название: Isekai Maou to Shoukan Shoujo no Dorei Majutsu Omega
Год выхода: 2021
Жанр: комедия, фэнтези, этти, магия, гарем, исекай
Режиссер: Сатоси Кувахара

О фильме:
В реальной жизни Такума Сакамото - одиночка, который совершенно не умеет общаться с людьми. Зато в онлайн-игре Cross Reverie его называют сильнейшим, самим Повелителем Тьмы. Однажды именно его призывают в иной мир, да ещё и в том же самом обличье, в котором он играл в Cross Reverie. Есть две девушки, каждая из которых утверждает, что именно она - заклинатель. В результате обе попадают в рабство к Повелителю Тьмы.

 
Страна: Япония
Продолжительность: ~ 00:24:00 (серия)
Перевод: Любительский (многоголосый, закадровый) | AniDUB

Файл
Формат: MKV
Кодек: MPEG-4 AVC
Качество: WEBRip 1080p
Видео: 1920x1080, ~8 000 kb/s, 23.976 FPS, 8 bit
Аудио (русский): AAC LC, 192 kb/s, 2 channels, 48.0 kHz | за удаление рекламы спасибо DS2902
Субтитры: отсутствуют

Релиз:




[+] MediaInfo

General
Unique ID                   : 24037670610435461858741690326000284962 (0x12157CA98DEFEA7FE1E4CCCBCCDF3522)
Complete name               : [KORSARS]_Isekai.Maou.to.Shoukan.Shoujo.no.Dorei.Majutsu.[S02E01].WEBRip.1080p_[AniDUB].mkv
Format                      : Matroska
Format version              : Version 4
File size                   : 1.38 GiB
Duration                    : 24 min 5 s
Overall bit rate            : 8 211 kb/s
Movie name                  : [KORSARS]_Isekai.Maou.to.Shoukan.Shoujo.no.Dorei.Majutsu.[S02E01].WEBRip.1080p_[AniDUB]
Encoded date                : UTC 2021-08-28 11:26:34
Writing application         : mkvmerge v60.0.0 ('Are We Copies?') 64-bit
Writing library             : libebml v1.4.2 + libmatroska v1.6.4
Attachments                 : Roboto-Medium.ttf / Roboto-MediumItalic.ttf / arial.ttf / arialbd.ttf / comic.ttf / comicbd.ttf / times.ttf / timesbd.ttf / trebuc.ttf / trebucbd.ttf / verdana.ttf / verdanab.ttf

Video
ID                          : 1
Format                      : AVC
Format/Info                 : Advanced Video Codec
Format profile              : High@L4
Format settings             : CABAC / 4 Ref Frames
Format settings, CABAC      : Yes
Format settings, Reference  : 4 frames
Codec ID                    : V_MPEG4/ISO/AVC
Duration                    : 24 min 5 s
Bit rate                    : 8 000 kb/s
Width                       : 1 920 pixels
Height                      : 1 080 pixels
Display aspect ratio        : 16:9
Frame rate mode             : Constant
Frame rate                  : 23.976 (24000/1001) FPS
Color space                 : YUV
Chroma subsampling          : 4:2:0
Bit depth                   : 8 bits
Scan type                   : Progressive
Bits/(Pixel*Frame)          : 0.161
Stream size                 : 1.34 GiB (97%)
Title                       : [KORSARS]_Isekai.Maou.to.Shoukan.Shoujo.no.Dorei.Majutsu.[S02E01].WEBRip.1080p_[AniDUB]
Writing library             : x264 core 142
Encoding settings           : cabac=1 / ref=4 / deblock=1:1:1 / analyse=0x3:0x113 / me=umh / subme=8 / psy=1 / psy_rd=0.40:0.00 / mixed_ref=1 / me_range=16 / chroma_me=1 / trellis=1 / 8x8dct=1 / cqm=0 / deadzone=21,11 / fast_pskip=1 / chroma_qp_offset=-2 / threads=12 / lookahead_threads=2 / sliced_threads=0 / nr=0 / decimate=1 / interlaced=0 / bluray_compat=0 / constrained_intra=0 / bframes=0 / weightp=2 / keyint=96 / keyint_min=48 / scenecut=40 / intra_refresh=0 / rc_lookahead=48 / rc=2pass / mbtree=1 / bitrate=8000 / ratetol=1.0 / qcomp=0.60 / qpmin=0 / qpmax=69 / qpstep=4 / cplxblur=20.0 / qblur=0.5 / vbv_maxrate=12000 / vbv_bufsize=18000 / nal_hrd=none / filler=0 / ip_ratio=1.40 / aq=1:0.60
Default                     : Yes
Forced                      : No

Audio
ID                          : 2
Format                      : AAC LC
Format/Info                 : Advanced Audio Codec Low Complexity
Codec ID                    : A_AAC-2
Duration                    : 24 min 5 s
Bit rate                    : 192 kb/s
Channel(s)                  : 2 channels
Channel layout              : L R
Sampling rate               : 48.0 kHz
Frame rate                  : 46.875 FPS (1024 SPF)
Compression mode            : Lossy
Stream size                 : 32.6 MiB (2%)
Title                       : [KORSARS]_Isekai.Maou.to.Shoukan.Shoujo.no.Dorei.Majutsu.[S02E01].WEBRip.1080p_[AniDUB]
Language                    : Russian
Default                     : Yes
Forced                      : No



Скриншоты:
[+] Всего файлов в раздаче - 10:
[KORSARS]_Isekai.Maou.to.Shoukan.Shoujo.no.Dorei.Majutsu.[S02E10].WEBRip.1080p_[AniDUB].mkv1.36 GB
[KORSARS]_Isekai.Maou.to.Shoukan.Shoujo.no.Dorei.Majutsu.[S02E03].WEBRip.1080p_[AniDUB].mkv1.37 GB
[KORSARS]_Isekai.Maou.to.Shoukan.Shoujo.no.Dorei.Majutsu.[S02E09].WEBRip.1080p_[AniDUB].mkv1.38 GB
[KORSARS]_Isekai.Maou.to.Shoukan.Shoujo.no.Dorei.Majutsu.[S02E07].WEBRip.1080p_[AniDUB].mkv1.38 GB
[KORSARS]_Isekai.Maou.to.Shoukan.Shoujo.no.Dorei.Majutsu.[S02E04].WEBRip.1080p_[AniDUB].mkv1.38 GB
[KORSARS]_Isekai.Maou.to.Shoukan.Shoujo.no.Dorei.Majutsu.[S02E05].WEBRip.1080p_[AniDUB].mkv1.38 GB
[KORSARS]_Isekai.Maou.to.Shoukan.Shoujo.no.Dorei.Majutsu.[S02E02].WEBRip.1080p_[AniDUB].mkv1.38 GB
[KORSARS]_Isekai.Maou.to.Shoukan.Shoujo.no.Dorei.Majutsu.[S02E06].WEBRip.1080p_[AniDUB].mkv1.38 GB
[KORSARS]_Isekai.Maou.to.Shoukan.Shoujo.no.Dorei.Majutsu.[S02E08].WEBRip.1080p_[AniDUB].mkv1.38 GB
[KORSARS]_Isekai.Maou.to.Shoukan.Shoujo.no.Dorei.Majutsu.[S02E01].WEBRip.1080p_[AniDUB].mkv1.38 GB

Отзывы
Зарегистрируйтесь чтобы добавить комментарий.
Загрузите программу
  byTorrent
Обратная связь
Copyleft ©