↑↓torrent.by
Поиск
Логин: Регистрация
Пароль: Восстановить пароль

Истребитель демонов: Поезд «Бесконечный» / Kimetsu no Yaiba: Mugen Ressha-Hen (2020) BDRip-HEVC 1080p от FortunaTV | D | StudioBand

Скачать istrebitel-demonov-poezd-beskonechnyy-kimetsu-no-yaiba-mugen-ressha-hen-2020-bdrip-hevc-1080p-ot-fortunatv-d-studioband.torrent
U Магнитная ссылка Размер: 9.31 GB Раздают: 4 Качают: 4 Добавлен: 2021-08-29 06:00:25
Истребитель демонов: Поезд «Бесконечный» / Kimetsu no Yaiba: Mugen Ressha-Hen (2020) BDRip-HEVC 1080p от FortunaTV | D | StudioBand

Название: Истребитель демонов: Поезд «Бесконечный»
Альтернативное название: Клинок, рассекающий демонов: Бесконечный поезд
Оригинальное название: Kimetsu no Yaiba: Mugen Ressha-Hen
Год выхода: 2020
Жанр: экшен, демоны, исторический, сёнен, сверхъестественное
Режиссер: Харуо Сотодзаки

О фильме:
Тандзиро с друзьями из отряда уничтожителей демонов расследует серию загадочных исчезновений внутри мчащегося поезда. Но компания ещё не знает, что в составе находится один из двенадцати Лунных демонов, и он приготовил для них ловушку.

 
Страна: Япония
Продолжительность: 01:56:52
Перевод: Дублированный | StudioBand

Файл
Формат: MKV
Кодек: HEVC
Качество: BDRip-HEVC 1080p
Видео: 1920x1080, ~ 9 187 kb/s, 23.976 FPS, 10 bits
Аудио #1 (русский): AAC, ~ 128 kb/s, 2 channels, 48.0 kHz
Аудио #2 (японский): DTS XLL, ~ 2 089 kb/s, 6 channels, 48.0 kHz
Навигация по главам: есть
Субтитры: Русские надписи | Полные [Истари Комикс]

Релиз от: FotunaTV

28.08.2021 обновлено. Добавлены субтитры. Приятного просмотра.

Внимание: Пока что звук доступен в 128 кб, раздача будет обновлена когда выйдет фильм на IVI или же станет доступен для покупки на ваканим/iTunes.


[+] MediaInfo

General
Unique ID : 29908093819058227287635819330441703004 (0x168016DF6AA6015B1453D73EF749EE5C)
Complete name : D:[WAKANIM] Gegege no KitarouSAO123[FortunaTV] Kimetsu no Yaiba Movie- Mugen Ressha-hen (BDRip 1920x1080 HEVC DTSHD Rus + Jap).mkv
Format : Matroska
Format version : Version 4
File size : 9.31 GiB
Duration : 1 h 56 min
Overall bit rate mode : Variable
Overall bit rate : 11.4 Mb/s
Encoded date : UTC 2021-08-27 23:04:58
Writing application : mkvmerge v39.0.0 ('In The Waiting Line') 64-bit
Writing library : libebml v1.3.9 + libmatroska v1.5.2

Video
ID : 1
Format : HEVC
Format/Info : High Efficiency Video Coding
Format profile : Main 10@L4@Main
Codec ID : V_MPEGH/ISO/HEVC
Duration : 1 h 56 min
Bit rate : 9 187 kb/s
Width : 1 920 pixels
Height : 1 080 pixels
Display aspect ratio : 16:9
Frame rate mode : Constant
Frame rate : 23.976 (24000/1001) FPS
Color space : YUV
Chroma subsampling : 4:2:0
Bit depth : 10 bits
Bits/(Pixel*Frame) : 0.185
Stream size : 7.50 GiB (81%)
Title : BDrip by Jensen
Writing library : x265 3.5+20-4c4aee0bc:[DJATOM's Mod][Windows][GCC 10.2.1][64 bit] 10bit
Encoding settings : cpuid=1049583 / frame-threads=16 / numa-pools=24,24 / wpp / pmode / pme / no-psnr / no-ssim / log-level=2 / csv / csv-log-level=0 / input-csp=1 / input-res=1920x1080 / interlace=0 / total-frames=168024 / level-idc=0 / high-tier=1 / uhd-bd=0 / ref=4 / no-allow-non-conformance / no-repeat-headers / annexb / no-aud / no-hrd / info / hash=0 / no-temporal-layers / open-gop / min-keyint=23 / keyint=240 / gop-lookahead=0 / bframes=8 / b-adapt=2 / b-pyramid / bframe-bias=0 / rc-lookahead=20 / lookahead-slices=6 / scenecut=40 / hist-scenecut=0 / radl=0 / no-splice / no-intra-refresh / ctu=32 / min-cu-size=8 / no-rect / no-amp / max-tu-size=16 / tu-inter-depth=2 / tu-intra-depth=2 / limit-tu=0 / rdoq-level=2 / dynamic-rd=0.00 / no-ssim-rd / signhide / no-tskip / nr-intra=0 / nr-inter=0 / no-constrained-intra / no-strong-intra-smoothing / max-merge=5 / limit-refs=0 / no-limit-modes / me=3 / subme=7 / merange=57 / temporal-mvp / no-frame-dup / no-hme / weightp / weightb / analyze-src-pics / deblock=1:-1 / no-sao / no-sao-non-deblock / rd=5 / selective-sao=0 / no-early-skip / no-rskip / no-fast-intra / no-tskip-fast / no-cu-lossless / b-intra / no-splitrd-skip / rdpenalty=0 / psy-rd=2.00 / psy-rdoq=4.00 / no-rd-refine / no-lossless / cbqpoffs=-2 / crqpoffs=-2 / rc=crf / crf=16.0 / qcomp=0.72 / qpstep=4 / stats-write=0 / stats-read=0 / ipratio=1.40 / pbratio=1.30 / aq-mode=3 / aq-strength=1.03 / no-cutree / zone-count=1 / zones: / start-frame=80168 / end-frame=81528 / bitrate-factor=0.800000 / no-strict-cbr / qg-size=32 / no-rc-grain / qpmax=69 / qpmin=0 / no-const-vbv / sar=0 / overscan=0 / videoformat=5 / range=0 / colorprim=1 / transfer=1 / colormatrix=1 / chromaloc=0 / display-window=0 / cll=0,0 / min-luma=0 / max-luma=1023 / log2-max-poc-lsb=8 / vui-timing-info / vui-hrd-info / slices=1 / no-opt-qp-pps / no-opt-ref-list-length-pps / no-multi-pass-opt-rps / scenecut-bias=0.05 / hist-threshold=0.03 / no-opt-cu-delta-qp / no-aq-motion / no-hdr10 / no-hdr10-opt / no-dhdr10-opt / no-idr-recovery-sei / analysis-reuse-level=0 / analysis-save-reuse-level=0 / analysis-load-reuse-level=0 / scale-factor=0 / refine-intra=4 / refine-inter=0 / refine-mv=3 / refine-ctu-distortion=0 / no-limit-sao / ctu-info=0 / no-lowpass-dct / refine-analysis-type=0 / copy-pic=1 / max-ausize-factor=1.0 / dynamic-refine / no-single-sei / no-hevc-aq / no-svt / no-field / qp-adaptation-range=2.00 / scenecut-aware-qp=0conformance-window-offsets / right=0 / bottom=0 / decoder-max-rate=0 / no-vbv-live-multi-pass
Language : Japanese
Default : Yes
Forced : No
Color range : Limited
Color primaries : BT.709
Transfer characteristics : BT.709
Matrix coefficients : BT.709

Audio #1
ID : 2
Format : AAC LC
Format/Info : Advanced Audio Codec Low Complexity
Codec ID : A_AAC-2
Duration : 1 h 56 min
Bit rate : 128 kb/s
Channel(s) : 2 channels
Channel layout : L R
Sampling rate : 48.0 kHz
Frame rate : 46.875 FPS (1024 SPF)
Compression mode : Lossy
Stream size : 107 MiB (1%)
Title : StudioBand
Language : Russian
Default : Yes
Forced : No

Audio #2
ID : 3
Format : DTS XLL
Format/Info : Digital Theater Systems
Commercial name : DTS-HD Master Audio
Codec ID : A_DTS
Duration : 1 h 56 min
Bit rate mode : Variable
Bit rate : 2 089 kb/s
Channel(s) : 2 channels
Channel layout : L R
Sampling rate : 48.0 kHz
Frame rate : 93.750 FPS (512 SPF)
Bit depth : 24 bits
Compression mode : Lossless
Stream size : 1.70 GiB (18%)
Language : Japanese
Default : No
Forced : No

Text #1
ID : 4
Format : ASS
Codec ID : S_TEXT/ASS
Codec ID/Info : Advanced Sub Station Alpha
Duration : 1 h 55 min
Bit rate : 115 b/s
Count of elements : 1427
Compression mode : Lossless
Stream size : 98.0 KiB (0%)
Title : Полные [Истари Комикс]
Language : Russian
Default : Yes
Forced : No

Text #2
ID : 5
Format : ASS
Codec ID : S_TEXT/ASS
Codec ID/Info : Advanced Sub Station Alpha
Duration : 1 h 18 min
Bit rate : 2 b/s
Count of elements : 16
Compression mode : Lossless
Stream size : 1.48 KiB (0%)
Title : Надписи
Default : No
Forced : No

Menu
00:00:00.000 : Avant
00:05:28.828 : Part A
00:16:10.678 : Part B
00:23:02.589 : Part C
00:35:00.723 : Part D
00:44:45.683 : Part E
00:50:19.933 : Part F
01:00:58.571 : Part G
01:06:12.259 : Part H
01:19:23.091 : Part I
01:31:04.750 : Part J
01:47:11.216 : Part K
01:51:55.875 : END



Скриншоты:
[+] Всего файлов в раздаче - 1:
[FortunaTV] Kimetsu no Yaiba Movie- Mugen Ressha-hen (BDRip 1920x1080 HEVC DTSHD Rus + Jap).mkv9.31 GB

Похожие раздачи по запросу - истребитель:
2021-08-18 U Истребитель демонов: Поезд «Бесконечный» / Клинок, рассекающий демонов: Бесконечный поезд / Kimetsu no Yaiba: Mugen Ressha-Hen (2020) BDRip 1080p от KORSARS | D |StudioBand 2.82 GB ↑ 11 ↓ 7
2021-08-17 U Истребитель демонов: Поезд «Бесконечный» / Клинок, рассекающий демонов: Бесконечный поезд / Kimetsu no Yaiba: Mugen Ressha-Hen (2020) BDRip-HEVC 1080p от FortunaTV | D | StudioBand 9.31 GB ↑ 7 ↓ 4
2021-07-01 U Истребитель демонов: Поезд «Бесконечный» / Клинок, рассекающий демонов: Бесконечный поезд / Kimetsu no Yaiba: Mugen Ressha-Hen (2020) WEBRip 1080p | AnimeVost 4.36 GB ↑ 156 ↓ 9

Отзывы
Зарегистрируйтесь чтобы добавить комментарий.
Загрузите программу
  byTorrent
Обратная связь
Copyleft ©