↑↓Torrent.by
Поиск
Логин: Регистрация
Пароль: Восстановить пароль
Загрузка...

Ремнант: Всё ещё вижу тебя / I Still See You (2018) WEB-DL 1080p | iTunes

Скачать remnant-vse-esche-vizhu-tebya-i-still-see-you-2018-web-dl-1080p-itunes.torrent
U Магнитная ссылка Размер: 3.39 GB Раздают: 262 Качают: 182 Добавлен: 2018-11-15 10:01:03
Ремнант: Всё ещё вижу тебя / I Still See You (2018) WEB-DL 1080p | iTunes

«Всё ещё вижу тебя»

Название: Ремнант: Всё ещё вижу тебя  
Оригинальное название: I Still See You
Год выхода: 2018
Жанр: Триллер, детектив, мелодрама, фантастика
Режиссер: Скотт Спир
В ролях: Белла Торн, Ричард Хэрмон, Дермот Малруни, Эми Прайс-Фрэнсис, Шон Бенсон, Луис Хертэм, , омас Эльмс, Сара Томпсон, Дэвид Браун, Хью Диллон

О фильме:
Десять лет назад загадочная аномалия стерла границы между миром живых и мёртвых, и теперь в мире людей проявляются призраки. Их называют ремнанты. Никто не знает, откуда они взялись, но они подчиняются некоторым правилам: проявляются в одном и том же месте в одно и то же время и они не могут нанести вред живому человеку. Старшеклассница Вероника в собственной ванной однажды сталкивается с новым ремнантом молодого человека, которого она никогда не видела. Небольшое расследование показывает, что его звали Брайан, и с его именем связано несколько убийств молодых женщин.

Страна: США
Студия: Gold Circle Films
Продолжительность: 01:37:55
Перевод: Профессиональный (полное дублирование) | iTunes

Файл
Качество: WEB-DL 1080p
Формат: MKV
Кодек: MPEG-4 AVC
Видео: 1912x796 (2,40:1), 23,976 fps, MPEG-4 AVC ~ 4569 Kbps avg, 0.125 bit/pixel
Аудио: AC3, 48 kHz, 6 ch, ~384.00 kbps avg | русский | iTunes

Субтитры: Отсутствуют


[+] Инфо-файл
Общее
Уникальный идентификатор                 : 235890509947194086832191333818758428512 (0xB176DC135C1E129A6EDA2608755D7760)
Полное имя                               : I_STILL_SEE_YOU (2018) WEB-DL 1080p-KAZTORKA.mkv
Формат                                   : Matroska
Версия формата                           : Version 4 / Version 2
Размер файла                             : 3,39 Гбайт
Продолжительность                        : 1 ч. 37 м.
Общий поток                              : 4955 Кбит/сек
Название фильма                          : I_STILL_SEE_YOU (2018) WEB-DL 1080p-KAZTORKA
Дата кодирования                         : UTC 2018-11-15 02:27:12
Программа кодирования                    : mkvmerge v27.0.0 ('Metropolis') 64-bit
Библиотека кодирования                   : libebml v1.3.6 + libmatroska v1.4.9

Видео
Идентификатор                            : 1
Формат                                   : AVC
Формат/Информация                        : Advanced Video Codec
Профиль формата                          : High@L4
Настройки формата                        : CABAC / 5 Ref Frames
Параметр CABAC формата                   : Да
Параметр RefFrames формата               : 5 кадров
Идентификатор кодека                     : V_MPEG4/ISO/AVC
Продолжительность                        : 1 ч. 37 м.
Битрейт                                  : 4569 Кбит/сек
Ширина                                   : 1912 пикселей
Высота                                   : 796 пикселей
Соотношение сторон                       : 2,40:1
Режим частоты кадров                     : Постоянный
Частота кадров                           : 23,976 кадра/сек
Цветовое пространство                    : YUV
Субдискретизация насыщенности            : 4:2:0
Битовая глубина                          : 8 бит
Тип развёртки                            : Прогрессивная
Бит/(Пиксели*Кадры)                      : 0.125
Размер потока                            : 3,12 Гбайт (92%)
Заголовок                                : I_STILL_SEE_YOU (2018) WEB-DL 1080p-KAZTORKA
Язык                                     : English
Default                                  : Да
Forced                                   : Нет
Цветовой диапазон                        : Limited
Основные цвета                           : BT.709
Характеристики трансфера                 : BT.709
Коэффициенты матрицы                     : BT.709

Аудио
Идентификатор                            : 2
Формат                                   : AC-3
Формат/Информация                        : Audio Coding 3
Идентификатор кодека                     : A_AC3
Продолжительность                        : 1 ч. 37 м.
Вид битрейта                             : Постоянный
Битрейт                                  : 384 Кбит/сек
Каналы                                   : 6 каналов
Расположение каналов                     : Front: L C R, Side: L R, LFE
Частота                                  : 48,0 КГц
Частота кадров                           : 31,250 кадров/сек (1536 SPF)
Битовая глубина                          : 16 бит
Метод сжатия                             : С потерями
Задержка видео                           : -42 мс.
Размер потока                            : 269 Мбайт (8%)
Заголовок                                : iTunes | I_STILL_SEE_YOU (2018) WEB-DL 1080p-KAZTORKA
Язык                                     : Russian
Default                                  : Да
Forced                                   : Нет

Меню
00:00:00.000                             : en:1
00:03:00.000                             : en:2
00:12:29.000                             : en:3
00:23:06.000                             : en:4
00:32:12.000                             : en:5
00:43:15.000                             : en:6
00:50:02.000                             : en:7
00:57:18.000                             : en:8
01:09:30.000                             : en:9
01:18:13.000                             : en:10
01:32:18.000                             : en:11



Скриншоты:
[+] Всего файлов в раздаче - 1:
I_STILL_SEE_YOU (2018) WEB-DL 1080p-KAZTORKA.mkv3.39 GB

Похожие раздачи по запросу - ремнант:
2018-12-12 U Ремнант: Всё ещё вижу тебя / I Still See You (2018) BDRemux 1080p от селезень | iTunes 26.76 GB ↑ 73 ↓ 26
2018-12-12 U Ремнант: Всё ещё вижу тебя / I Still See You (2018) BDRip от MegaPeer | iTunes 1.42 GB ↑ 187 ↓ 25

Отзывы
Зарегистрируйтесь чтобы добавить комментарий.
Обратная связь
Copyleft ©