↑↓Torrent.by
Поиск
Логин: Регистрация
Пароль: Восстановить пароль
Загрузка...

Загадочные открытия в Великой пирамиде / Mysterious Discoveries in the Great Pyramid (2017) HDTV 1080i | P2, P1

Скачать zagadochnye-otkrytiya-v-velikoy-piramide-mysterious-discoveries-in-the-great-pyramid-2017-hdtv-1080i-p2-p1.torrent
U Магнитная ссылка Размер: 3.20 GB Раздают: 51 Качают: 16 Добавлен: 2018-11-18 04:12:07
Загадочные открытия в Великой пирамиде / Mysterious Discoveries in the Great Pyramid (2017) HDTV  1080i | P2, P1

Название: Загадочные открытия в Великой пирамиде
Оригинальное название: Mysterious Discoveries in the Great Pyramid
Год выхода: 2017
Жанр: Документальный, археология, история
Режиссер: Флоранс Тран

О фильме:
Как известно, в знаменитой пирамиде фараона Хеопса не нашли ни царской мумии, ни погребальных принадлежностей. Между тем, папирус, датирующийся тысяча семисотым годом до нашей эры, говорит о том, что Хеопс страстно желал, чтобы в его усыпальнице были построены тайные комнаты. Но они так и не были обнаружены.
На протяжении веков искатели приключений, используя самые современные технологии, пытались найти, что спрятано внутри. Начиная с XIX века, когда охотники за сокровищами использовали динамит, оставивший на памятнике разрушительные отметины, до современных египтологов, которые в последние десятилетия используют роботов и миниатюрные камеры.
Сегодня новая команда попробует увидеть, что спрятано внутри пирамиды высотой с сорокаэтажный дом. Обнаружат ли исследователи внутри неизвестные до сих пор комнаты и коридоры спустя десятилетия поисков? И сумеют ли они сделать это, не потревожив ни один из бесценных камней?

Страна: Египет, Франция, Япония
Студия: France Televisions
Продолжительность: 00:52:33
Перевод 1: Профессиональный (одноголосый закадровый) 1ТВЧ
Перевод 2: Профессиональный (двухголосый закадровый) СВ-Дубль

Файл
Кодек: AVC/H.264
Качество: HDTV  1080i
Видео: 1920x1080 (16:9), 25 fps, AVC (x264), [email protected], 7895 kbps, 25fps, 0.152 bit/pixel
Звук:
Русский 48.0 KHz, AC3 6 ch (Front: L C R, Side: L R, LFE) ch, ~448.00 kbps avg
Русский 48 kHz, AC3 Dolby Digital, 2/0 (L,R) ch, ~192.00 kbps avg
Субтитры: Русские, отключаемые

Релиз от: kyba
[+] MediaInfo

Complete name               : F:НаладкиПирамида Хеопса_ Великая загадка.mkv
Format                      : Matroska
Format version              : Version 4 / Version 2
File size                   : 3.20 GiB
Duration                    : 52 min 33 s
Overall bit rate            : 8 708 kb/s
Encoded date                : UTC 2018-11-17 03:27:49
Writing application         : mkvmerge v6.6.0 ('The Edge Of The In Between') built on Dec  1 2013 17:55:00
Writing library             : libebml v1.3.0 + libmatroska v1.4.1

Video
ID                          : 1
Format                      : AVC
Format/Info                 : Advanced Video Codec
Format profile              : Main@L4
Format settings             : CABAC / 3 Ref Frames
Format settings, CABAC      : Yes
Format settings, ReFrames   : 3 frames
Codec ID                    : V_MPEG4/ISO/AVC
Duration                    : 52 min 33 s
Bit rate                    : 7 895 kb/s
Width                       : 1 920 pixels
Height                      : 1 080 pixels
Display aspect ratio        : 16:9
Frame rate mode             : Constant
Frame rate                  : 25.000 FPS
Color space                 : YUV
Chroma subsampling          : 4:2:0
Bit depth                   : 8 bits
Scan type                   : Interlaced
Scan type, store method     : Separated fields
Scan order                  : Top Field First
Bits/(Pixel*Frame)          : 0.152
Stream size                 : 2.90 GiB (91%)
Default                     : Yes
Forced                      : No
Color range                 : Limited
Color primaries             : BT.709
Transfer characteristics    : BT.709
Matrix coefficients         : BT.709

Audio #1
ID                          : 2
Format                      : AC-3
Format/Info                 : Audio Coding 3
Codec ID                    : A_AC3
Duration                    : 52 min 33 s
Bit rate mode               : Constant
Bit rate                    : 448 kb/s
Channel(s)                  : 6 channels
Channel positions           : Front: L C R, Side: L R, LFE
Sampling rate               : 48.0 kHz
Frame rate                  : 31.250 FPS (1536 SPF)
Bit depth                   : 16 bits
Compression mode            : Lossy
Stream size                 : 168 MiB (5%)
Title                       : 1ТВЧ
Language                    : Russian
Service kind                : Complete Main
Default                     : Yes
Forced                      : Yes

Audio #2
ID                          : 3
Format                      : AC-3
Format/Info                 : Audio Coding 3
Codec ID                    : A_AC3
Duration                    : 52 min 33 s
Bit rate mode               : Constant
Bit rate                    : 192 kb/s
Channel(s)                  : 2 channels
Channel positions           : Front: L R
Sampling rate               : 48.0 kHz
Frame rate                  : 31.250 FPS (1536 SPF)
Bit depth                   : 16 bits
Compression mode            : Lossy
Stream size                 : 72.2 MiB (2%)
Title                       : СВ-Дубль
Language                    : Russian
Service kind                : Complete Main
Default                     : No
Forced                      : No

Text
ID                          : 4
Format                      : UTF-8
Codec ID                    : S_TEXT/UTF8
Codec ID/Info               : UTF-8 Plain Text
Title                       : СВ-Дубль
Language                    : Russian
Default                     : No
Forced                      : No



Скриншоты:
[+] Всего файлов в раздаче - 1:
Пирамида Хеопса_ Великая загадка.mkv3.20 GB

Текущая раздача:
ДатаКомментарии    РазмерПиры
2018-11-18 U Загадочные открытия в Великой пирамиде / Mysterious Discoveries in the Great Pyramid (2017) HDTV 1080i | P2, P1 3.20 GB ↑ 51 ↓ 16

Показать еще раздачи по запросу загадочные:
2018-05-21 U Загадочные исчезновения / Mysteries of the Missing [S01] (2017) HDTVRip от Kaztorrents | P1 4.85 GB ↑ 403 ↓ 41
2018-04-08 U Загадочные истории 9: Другая сторона / Mystery Tales 9: The Other Side CE (2018) PC 1.98 GB ↑ 256 ↓ 30
2018-01-29 U Загадочные исчезновения / Mysteries of the Missing [01х02-03,05 из 08] (2017) HDTVRip от Kaztorrents | P1 1.81 GB ↑ 187 ↓ 13
2018-01-20 U Загадочные исчезновения / Mysteries of the Missing [01х02 из 08] (2017) HDTVRip от Kaztorrents | P1 624.30 MB ↑ 122 ↓ 15
2017-11-01 U Загадочные истории 8: Опасные желания. Коллекционное издание (2017) PC 1.91 GB ↑ 91 ↓ 50
2017-05-11 U Загадочные истории 6: Палач возвращается (2017) PC | RePack от SpaceX 1.48 GB ↑ 182 ↓ 31
2017-05-06 U Загадочные истории 5: Воспламеняющая взглядом (2017) PC | RePack от SpaceX 1.03 GB ↑ 34 ↓ 8

Отзывы
Зарегистрируйтесь чтобы добавить комментарий.
Обратная связь
Copyleft ©