↑↓Torrent.by
Поиск
Логин: Регистрация
Пароль: Восстановить пароль
Загрузка...

Охота на верного (2018) HDTV 1080i

Скачать ohota-na-vernogo-2018-hdtv-1080i.torrent
U Магнитная ссылка Размер: 4.88 GB Раздают: 115 Качают: 51 Добавлен: 2018-11-18 19:08:51
Охота на верного (2018) HDTV 1080i

Оригинальное название: Охота на верного
Год выпуска: 2018
Жанр:  Мелодрама
Режиссер: Пётр Степин
В ролях: Екатерина Астахова, Кирилл Запорожский, Дарья Повереннова, Татьяна Янкевич, Евгений Казакевич

О фильме:
После того, как Ольга узнает, что у ее любимого мужчины от жены родился сын и уходить из семьи он не собирается, раздавленная девушка в отчаянии заявляет своей коллеге Тамаре, что все мужчины одинаковы - они все изменяют. Изменяют и женам, и любовницам, причем в тот же момент, как им подвернется шанс. Тамара не соглашается с таким выводом и приводит в пример их нового сотрудника Николая. Он идеальный семьянин, прекрасный отец, надежный и верный муж. Всегда спешит домой и все вечера, выходные и отпуск проводит с женой и детьми. Но Ольга уверена, что все это до поры до времени, ведь верных мужчин в природе не существует. И как только у Николая появится шанс изменить жене, он тут же им воспользуется. А чтобы доказать это, Ольга предлагает коллеге пари – она легко соблазнит этого «верного» и заставит изменить жене…

Страна: Россия
Студия: Фабула Продакшн
Продолжительность: 01:31:13
Язык: Русский

Файл
Кодек: h.264
Качество: HDTV 1080i
Видео: AVC/H.264, 1920x1080 (16:9), ~7095 Kbps
Аудио: MP3, 2 ch, 192 Kbps


[+] M/I
Общее
Формат                                   : MPEG-TS
Размер файла                             : 4,86 Гбайт
Продолжительность                        : 1 ч. 30 м.
Режим общего битрейта                    : Переменный
Общий поток                              : 7668 Кбит/сек

Видео
Идентификатор                            : 2911 (0xB5F)
Идентификатор меню                       : 1192 (0x4A8)
Формат                                   : AVC
Формат/Информация                        : Advanced Video Codec
Профиль формата                          : High@L4
Настройки формата                        : CABAC / 4 Ref Frames
Параметр CABAC формата                   : Да
Параметр RefFrames формата               : 4 кадра
Идентификатор кодека                     : 27
Продолжительность                        : 1 ч. 30 м.
Битрейт                                  : 7095 Кбит/сек
Ширина                                   : 1920 пикселей
Высота                                   : 1080 пикселей
Соотношение сторон                       : 16:9
Частота кадров                           : 25,000 кадров/сек
Цветовое пространство                    : YUV
Субдискретизация насыщенности            : 4:2:0
Битовая глубина                          : 8 бит
Тип развёртки                            : MBAFF
Метод сохранения типа развёртки          : Чередующиеся поля
Порядок развёртки                        : Верхнее поле первое
Бит/(Пиксели*Кадры)                      : 0.137
Размер потока                            : 4,50 Гбайт (93%)

Аудио
Идентификатор                            : 2912 (0xB60)
Идентификатор меню                       : 1192 (0x4A8)
Формат                                   : MPEG Audio
Версия формата                           : Version 1
Профиль формата                          : Layer 2
Идентификатор кодека                     : 3
Продолжительность                        : 1 ч. 30 м.
Вид битрейта                             : Постоянный
Битрейт                                  : 192 Кбит/сек
Каналы                                   : 2 канала
Частота                                  : 48,0 КГц
Частота кадров                           : 41,667 кадра/сек (1152 SPF)
Метод сжатия                             : С потерями
Задержка видео                           : -40 мс.
Размер потока                            : 125 Мбайт (3%)
Язык                                     : Russian



Скриншоты:
[+] Всего файлов в раздаче - 1:
Ohota.na.vernogo.2018.HDTV.1080i.ts4.88 GB

Показать еще раздачи по запросу охота:
2019-05-16 U Охота на пиранью [01-04 из 04] (2006) WEBRip-AVC | Телеверсия 2.33 GB ↑ 61 ↓ 19
2019-04-22 U Охота на пиранью (2006) SATRip-AVC от KORSAR | Расширенная ТВ-версия 3.40 GB ↑ 48 ↓ 30
2019-03-22 U Ведьмак 3: Дикая Охота / The Witcher 3: Wild Hunt - Game of the Year Edition [v 1.31 + 18 DLC] (2015) PC | Repack от xatab 27.93 GB ↑ 336 ↓ 348
2018-11-27 U Охота на воров / Den of Thieves (2018) BDRip | Расширенная версия | Гаврилов 2.17 GB ↑ 124 ↓ 31
2018-11-18 U Охота на верного (2018) HDTVRip-AVC от Files-x 1.37 GB ↑ 188 ↓ 42
2018-11-18 U Охота на верного (2018) WEBRip от Files-x 1.37 GB ↑ 79 ↓ 32
2018-11-14 U Джокер. Охота на зверя [S03] (2018) HDTVRip от Files-x 2.63 GB ↑ 74 ↓ 55

Отзывы
Зарегистрируйтесь чтобы добавить комментарий.
Обратная связь
Copyleft ©