↑↓Torrent.by
Поиск
Логин: Регистрация
Пароль: Восстановить пароль
Загрузка...

Тень закона / La sombra de la ley / Gun City (2018) WEB-DLRip-AVC от New-Team | L2 | HiWay Grope

Скачать ten-zakona-la-sombra-de-ley-gun-city-2018-web-dlrip-avc-ot-new-team-l2-hiway-grope.torrent
U Магнитная ссылка Размер: 1.52 GB Раздают: 46 Качают: 17 Добавлен: 2018-11-19 02:28:38
Тень закона / La sombra de la ley / Gun City (2018) WEB-DLRip-AVC от New-Team | L2 | HiWay Grope

Тень закона
La sombra de la ley / Gun City

Страна: Испания, Франция
Жанр:  триллер

Год выпуска: 2018
Продолжительность: 02:06:02

Перевод: Любительский (двухголосый, закадровый) [HiWay Grope]
Субтитры: нет
Оригинальная аудиодорожка: нет

Режиссер: Дэни Де Ла Торре / Dani de la Torre

В ролях: Луис Тосар, Мишель Хеннер, Висенте Ромеро, Маноло Соло, Пако Тоус, Хайме Лорэнте, Пеп Тосар, Эрнесто Альтерио, Адриана Торребехано, Хосе Мануэль Ривера, Уильям Миллер

Описание:
В 1921 году беспринципный полицейский приезжает из Мадрида в Барселону, чтобы найти краденное армейское оружие. А тем временем город заполоняют хаос, забастовки и протесты.

Релиз:

Автор рипа: stalkerok
Без рекламы!

Семпл

Качество видео: WEB-DLRip-AVC [Gun.City.2018.French.1080p.NF.WEB-DL.DDP5.1.H264-CMRG]
Формат видео: MKV
Видео кодек: AVC
Аудио кодек: AC3
Видео: AVC, 1336 Кбит/сек, 960x402 (2.40:1), 24 кадр/сек
Аудио: AC3, 384 Кбит/сек, 48 КГц, 5.1 - русский


[+] x264/MediaInfo


---[Information] [17.11.2018 22:18:32] x264 [info]: frame I:1348  Avg QP:16.05  size: 37787
---[Information] [17.11.2018 22:18:32] x264 [info]: frame P:41777 Avg QP:18.05  size: 14852
---[Information] [17.11.2018 22:18:32] x264 [info]: frame B:138369 Avg QP:20.84  size:  4276

General
Unique ID                                : 200825186268071366862076951698812524473 (0x97158623B09327B5D1D79E92830D57B9)
Complete name                            : O:TempGun CityGun.City.2018.WEB-DLRip.x264.Rus.stalkerok.New-Team.mkv
Format                                   : Matroska
Format version                           : Version 4 / Version 2
File size                                : 1.52 GiB
Duration                                 : 2 h 6 min
Overall bit rate                         : 1 722 kb/s
Movie name                               : Gun City (2018) | Rip by stalkerok
Encoded date                             : UTC 2018-11-18 09:13:37
Writing application                      : mkvmerge v28.2.0 ('The Awakening') 64-bit
Writing library                          : libebml v1.3.6 + libmatroska v1.4.9

Video
ID                                       : 1
Format                                   : AVC
Format/Info                              : Advanced Video Codec
Format profile                           : High@L4.1
Format settings, CABAC                   : Yes
Format settings, ReFrames                : 12 frames
Codec ID                                 : V_MPEG4/ISO/AVC
Duration                                 : 2 h 6 min
Bit rate                                 : 1 336 kb/s
Width                                    : 960 pixels
Height                                   : 402 pixels
Display aspect ratio                     : 2.40:1
Frame rate mode                          : Constant
Frame rate                               : 24.000 FPS
Color space                              : YUV
Chroma subsampling                       : 4:2:0
Bit depth                                : 8 bits
Scan type                                : Progressive
Bits/(Pixel*Frame)                       : 0.144
Stream size                              : 1.18 GiB (78%)
Title                                    : Gun City (2018) | Rip by stalkerok
Writing library                          : x264 core 157 r2932 303c484
Encoding settings                        : cabac=1 / ref=12 / deblock=1:-3:-2 / analyse=0x3:0x133 / me=umh / subme=10 / psy=1 / psy_rd=1.00:0.00 / mixed_ref=1 / me_range=32 / chroma_me=1 / trellis=2 / 8x8dct=1 / cqm=0 / deadzone=21,11 / fast_pskip=0 / chroma_qp_offset=-2 / threads=12 / lookahead_threads=3 / sliced_threads=0 / nr=0 / decimate=1 / interlaced=0 / bluray_compat=0 / constrained_intra=0 / bframes=14 / b_pyramid=2 / b_adapt=2 / b_bias=0 / direct=3 / weightb=1 / open_gop=0 / weightp=2 / keyint=240 / keyint_min=23 / scenecut=40 / intra_refresh=0 / rc_lookahead=60 / rc=crf / mbtree=0 / crf=18.2 / qcomp=0.65 / qpmin=0 / qpmax=69 / qpstep=4 / vbv_maxrate=50000 / vbv_bufsize=62500 / crf_max=0.0 / nal_hrd=none / filler=0 / ip_ratio=1.40 / pb_ratio=1.30 / aq=3:0.80 / zones=171575,181493,q=33
Default                                  : Yes
Forced                                   : No

Audio
ID                                       : 2
Format                                   : AC-3
Format/Info                              : Audio Coding 3
Mode extension                           : CM (complete main)
Format settings, Endianness              : Big
Codec ID                                 : A_AC3
Duration                                 : 2 h 6 min
Bit rate mode                            : Constant
Bit rate                                 : 384 kb/s
Channel(s)                               : 6 channels
Channel positions                        : Front: L C R, Side: L R, LFE
Sampling rate                            : 48.0 kHz
Frame rate                               : 31.250 FPS (1536 spf)
Compression mode                         : Lossy
Stream size                              : 346 MiB (22%)
Title                                    : HiWay Grope
Language                                 : Russian
Default                                  : Yes
Forced                                   : No




Скриншоты:
[+] Всего файлов в раздаче - 1:
Gun.City.2018.WEB-DLRip.x264.Rus.stalkerok.New-Team.mkv1.52 GB

Показать еще раздачи по запросу тень:
2019-07-21 U Тень / Ying / Shadow (2018) BDRip 1080p от Талямбы | 60 fps | iTunes 19.53 GB ↑ 29 ↓ 26
2019-03-29 U Тень / Ying / Shadow (2018) BDRip 720р | D, P | iTunes 5.54 GB ↑ 150 ↓ 62
2019-03-29 U Тень / Ying / Shadow (2018) BDRip 1080р | D, P | iTunes 8.40 GB ↑ 125 ↓ 46
2019-02-10 U Тень / Shadow / Ying (2018) WEB-DL 1080p | HDRezka Studio 4.18 GB ↑ 445 ↓ 176
2019-02-02 U Тень закона / La sombra de la ley / Gun City (2018) BDRip от MegaPeer | HDRezka Studio 1К1.46 GB ↑ 120 ↓ 43
2019-01-16 U Тень / Shadow / Ying (2018) WEB-DLRip-AVC от Batafurai Team и SOUND-GROUP | L2 2.06 GB ↑ 227 ↓ 48
2018-11-19 U Тень [01-02 из 02] (2018) HDTVRip от ExKinoRay 1.46 GB ↑ 56 ↓ 26

Отзывы
Зарегистрируйтесь чтобы добавить комментарий.
Обратная связь
Copyleft ©