↑↓Torrent.by
Поиск
Логин: Регистрация
Пароль: Восстановить пароль
Загрузка...

Укрась прощальное утро цветами обещания / Sayonara no asa ni yakusoku no hana o kazaro (2018) BDRip | iTunes

Скачать ukras-proschalnoe-utro-cvetami-obeschaniya-sayonara-no-asa-ni-yakusoku-hana-o-kazaro-2018-bdrip-itunes.torrent
U Магнитная ссылка Размер: 1.46 GB Раздают: 83 Качают: 7 Добавлен: 2018-11-19 11:07:59
Укрась прощальное утро цветами обещания / Sayonara no asa ni yakusoku no hana o kazaro (2018) BDRip | iTunes

Название: Укрась прощальное утро цветами обещания
Оригинальное название: Sayonara no asa ni yakusoku no hana o kazaro / Maquia: When the Promised Flower Blooms
Год выхода: 2018
Жанр: Аниме, мультфильм, драма, мелодрама, приключения, фэнтези
Страна: Япония
Перевод: Дублированный | iTunes + субтитры на ~ 2мин
Продолжительность: 01:54:48
Режиссер: Мари Окада
В ролях: Манака Ивами, Ирино Мию, Ёко Хикаса, Хирата Хироаки, Ёсимаса Хосоя, Юки Кадзи, Аи Каяно, Мисаки Куно, Рина Сато, Миюки Савасиро и др.
Роли дублировали: Елена Симанович, Анна Гребенщикова, Василий Марков, Михаил Каданин, Мария Бондаренко.

О фильме: Красавица Макия — из рода бессмертных. На протяжении веков многие армии пытались захватить её народ, чтобы завладеть секретом вечной жизни. И вот теперь, когда город разрушен, девушка прячется в лесу. Здесь она встречает потерявшего родителей маленького мальчика Эриала и начинает о нём заботиться. Проходят годы, мальчик превращается в прекрасного юношу, и у беглецов возникают чувства друг к другу. Но Макия понимает, что Эриал — простой человек, а значит, он смертен.

Файл
Формат: AVI
Качество: BDRip | BDRemux 1080p
Видео: Xvid 73, 704x400, ~1425 kbps, 23,976 fps
Звук: русский, AC3, 5.1 ch, 48 kHz, 384 kbps | iTunes
Субтитры: русские (вшитые) на ~ 2 мин
[+] MI
General
Полное имя                               : F:TorrentSayonaranoasaniyakusokunohanaokazaroBDRip.avi
Формат                                   : AVI
Формат/Информация                        : Audio Video Interleave
Профиль формата                          : OpenDML
Размер файла                             : 1.46 GiB
Продолжительность                        : 1 h 54 min
Общий поток                              : 1 820 kb/s
Программа кодирования                    : XviD4PSP 6.0 / 54.27.101

Video
Идентификатор                            : 0
Формат                                   : MPEG-4 Visual
Профиль формата                          : Advanced Simple@L5
Настройки формата                        : BVOP2 / Custom Matrix
Параметр BVOP формата                    : 2
Параметр QPel формата                    : No
Параметр GMC формата                     : No warppoints
Параметр матрицы формата                 : Custom
Идентификатор кодека                     : XVID
Идентификатор кодека/Подсказка           : XviD
Продолжительность                        : 1 h 54 min
Битрейт                                  : 1 425 kb/s
Ширина                                   : 704 pixels
Высота                                   : 400 pixels
Соотношение сторон                       : 16:9
Частота кадров                           : 23.976 (23976/1000) FPS
Цветовое пространство                    : YUV
Субдискретизация насыщенности            : 4:2:0
Битовая глубина                          : 8 bits
Тип развёртки                            : Progressive
Метод сжатия                             : Lossy
Бит/(Пиксели*Кадры)                      : 0.211
Размер потока                            : 1.14 GiB (78%)
Библиотека кодирования                   : XviD 73

Audio
Идентификатор                            : 1
Формат                                   : AC-3
Формат/Информация                        : Audio Coding 3
Идентификатор кодека                     : 2000
Продолжительность                        : 1 h 54 min
Вид битрейта                             : Constant
Битрейт                                  : 384 kb/s
Каналы                                   : 6 channels
Расположение каналов                     : Front: L C R, Side: L R, LFE
Частота                                  : 48.0 kHz
Частота кадров                           : 31.250 FPS (1536 SPF)
Битовая глубина                          : 16 bits
Метод сжатия                             : Lossy
Размер потока                            : 315 MiB (21%)
Выравнивание                             : Aligned on interleaves
Продолжительность промежутка             : 32  ms (0.77 video frame)




Скриншоты:
[+] Всего файлов в раздаче - 1:
SayonaranoasaniyakusokunohanaokazaroBDRip.avi1.46 GB

Текущая раздача:
ДатаКомментарии    РазмерПиры
2018-11-19 U Укрась прощальное утро цветами обещания / Sayonara no asa ni yakusoku no hana o kazaro (2018) BDRip | iTunes 1.46 GB ↑ 83 ↓ 7

Похожие раздачи по запросу - укрась:
2018-11-20 U Укрась прощальное утро цветами обещания / Sayonara no asa ni yakusoku no hana o kazaro (2018) BDRip 1080p | iTunes 7.75 GB ↑ 65 ↓ 20

Отзывы
Зарегистрируйтесь чтобы добавить комментарий.
Обратная связь
Copyleft ©