↑↓Torrent.by
Поиск
Логин: Регистрация
Пароль: Восстановить пароль
Загрузка...

Тайна магазина игрушек / Tea Pets (2017) WEB-DL 1080p | iTunes

Скачать tayna-magazina-igrushek-tea-pets-2017-web-dl-1080p-itunes.torrent
U Магнитная ссылка Размер: 3.34 GB Раздают: 183 Качают: 73 Добавлен: 2018-11-20 06:40:39
Тайна магазина игрушек / Tea Pets (2017) WEB-DL 1080p | iTunes

Название: Тайна магазина игрушек
Оригинальное название: Tea Pets
Год выхода: 2017
Жанр: Мультфильм, семейный, фэнтези, приключения
Режиссер: Гэри Ван
Роли озвучивают: Ши Лэй, Юань Цзэюй, Цзи Гуаньлинь, Хун Хуан, Чжан Лэй, Янь Яньшэн, Ивонн Чжао

О фильме:
Робот Таймбот попадает на землю, после того, как его космический корабль потерпел крушение. Он попадает в магазин игрушек, где его обитатели, жили своей тихой и спокойной жизнью, играли, а по ночам пугали друг друга историями о некоем «Правителе Подземелья», который с помощью своих верных помощников, крыс Шмыгуна и Пискуна, похищает их друзей из соседних магазинов. В один из дней, пропадает их подружка Мэй, и игрушки, во главе с Таймботом убегают из магазина и отправляются в город на ее поиски. С этого и начинаются интересные, полные юмора и приключений путешествия маленьких героев под недоуменные взгляды городских жителей.

Страна: Китай
Студия: Light Chaser Animation Studios
Продолжительность: 01:37:33
Перевод: Профессиональный (полное дублирование) | iTunes

Файл
Качество: WEB-DL 1080p
Формат: MKV
Кодек: MPEG-4 AVC
Видео: 1920x804 (2,40:1), 24 fps, MPEG-4 AVC ~ 4509 Kbps avg, 0.122 bit/pixel
Аудио: AC3, 48 kHz, 6 ch, ~384.00 kbps avg | русский | iTunes

Субтитры: Отсутствуют


[+] Инфо-файл
Общее
Уникальный идентификатор                 : 213079296826593544140540903803687472342 (0xA04D946FA7DE0DC62486DA13E4230CD6)
Полное имя                               : TEA_PETS (2017) WEB-DL 1080p-KAZTORKA.mkv
Формат                                   : Matroska
Версия формата                           : Version 4 / Version 2
Размер файла                             : 3,34 Гбайт
Продолжительность                        : 1 ч. 37 м.
Общий поток                              : 4895 Кбит/сек
Название фильма                          : TEA_PETS (2017) WEB-DL 1080p-KAZTORKA
Дата кодирования                         : UTC 2018-11-19 19:58:59
Программа кодирования                    : mkvmerge v27.0.0 ('Metropolis') 64-bit
Библиотека кодирования                   : libebml v1.3.6 + libmatroska v1.4.9

Видео
Идентификатор                            : 1
Формат                                   : AVC
Формат/Информация                        : Advanced Video Codec
Профиль формата                          : High@L4
Настройки формата                        : CABAC / 5 Ref Frames
Параметр CABAC формата                   : Да
Параметр RefFrames формата               : 5 кадров
Параметр GOP формата                     : N=1
Идентификатор кодека                     : V_MPEG4/ISO/AVC
Продолжительность                        : 1 ч. 37 м.
Битрейт                                  : 4509 Кбит/сек
Ширина                                   : 1920 пикселей
Высота                                   : 804 пикселя
Соотношение сторон                       : 2,40:1
Режим частоты кадров                     : Постоянный
Частота кадров                           : 24,000 кадра/сек
Цветовое пространство                    : YUV
Субдискретизация насыщенности            : 4:2:0
Битовая глубина                          : 8 бит
Тип развёртки                            : Прогрессивная
Бит/(Пиксели*Кадры)                      : 0.122
Размер потока                            : 3,07 Гбайт (92%)
Заголовок                                : TEA_PETS (2017) WEB-DL 1080p-KAZTORKA
Язык                                     : English
Default                                  : Да
Forced                                   : Нет
Цветовой диапазон                        : Limited
Основные цвета                           : BT.709
Характеристики трансфера                 : BT.709
Коэффициенты матрицы                     : BT.709

Аудио
Идентификатор                            : 2
Формат                                   : AC-3
Формат/Информация                        : Audio Coding 3
Идентификатор кодека                     : A_AC3
Продолжительность                        : 1 ч. 37 м.
Вид битрейта                             : Постоянный
Битрейт                                  : 384 Кбит/сек
Каналы                                   : 6 каналов
Расположение каналов                     : Front: L C R, Side: L R, LFE
Частота                                  : 48,0 КГц
Частота кадров                           : 31,250 кадров/сек (1536 SPF)
Битовая глубина                          : 16 бит
Метод сжатия                             : С потерями
Задержка видео                           : -42 мс.
Размер потока                            : 268 Мбайт (8%)
Заголовок                                : iTunes | TEA_PETS (2017) WEB-DL 1080p-KAZTORKA
Язык                                     : Russian
Default                                  : Да
Forced                                   : Нет

Меню
00:00:00.000                             : en:Глава 1
00:02:27.458                             : en:Глава 2
00:09:17.333                             : en:Глава 3
00:18:13.666                             : en:Глава 4
00:26:38.207                             : en:Глава 5
00:37:07.582                             : en:Глава 6
00:45:30.290                             : en:Глава 7
00:51:11.748                             : en:Глава 8
00:57:19.539                             : en:Глава 9
01:07:06.247                             : en:Глава 10
01:13:12.247                             : en:Глава 11
01:19:01.163                             : en:Глава 12
01:28:43.371                             : en:Глава 13



Скриншоты:
[+] Всего файлов в раздаче - 1:
TEA_PETS (2017) WEB-DL 1080p-KAZTORKA.mkv3.34 GB

Текущая раздача:
ДатаКомментарии    РазмерПиры
2018-11-20 U Тайна магазина игрушек / Tea Pets (2017) WEB-DL 1080p | iTunes 3.34 GB ↑ 183 ↓ 73

Показать еще раздачи по запросу тайна:
Вчера U Тайна дома с часами / The House with a Clock in Its Walls (2018) HDRip от Scarabey | Line 1.45 GB ↑ 50 ↓ 18
2018-12-16 U Тайна дома с часами / The House with a Clock in Its Walls (2018) BDRip-AVC от OlLanDGroup | Line 1.81 GB ↑ 293 ↓ 62
2018-12-16 U Тайна дома с часами / The House with a Clock in Its Walls (2018) BDRip 1080p от селезень | Line 9.78 GB ↑ 343 ↓ 631
2018-12-16 U Тайна дома с часами / The House with a Clock in Its Walls (2018) BDRip от MegaPeer | Line 1.46 GB ↑ 2458 ↓ 592
2018-12-15 U Тайна дома с часами / The House with a Clock in Its Walls (2018) HDRip-AVC от Dalemake | Line 1.49 GB ↑ 137 ↓ 90
2018-12-15 U Тайна дома с часами / The House with a Clock in Its Walls (2018) WEB-DL 1080p | Line 3.76 GB ↑ 112 ↓ 40
2018-12-15 U Тайна дома с часами / The House with a Clock in Its Walls (2018) WEBRip 1080p | Line 4.83 GB ↑ 1674 ↓ 413

Отзывы
Зарегистрируйтесь чтобы добавить комментарий.
Обратная связь
Copyleft ©