↑↓Torrent.by
Поиск
Логин: Регистрация
Пароль: Восстановить пароль
Загрузка...

Казаки. Сборник мультфильмов (1967-1984) DVDRip-AVC от KORSAR

Скачать kazaki-sbornik-multfilmov-1967-1984-dvdrip-avc-ot-korsar.torrent
U Магнитная ссылка Размер: 3.49 GB Раздают: 78 Качают: 24 Добавлен: 2018-11-23 09:23:11
Казаки. Сборник мультфильмов (1967-1984) DVDRip-AVC от KORSAR

Казаки. Сборник мультфильмов

Страна: СССР
Жанр:  Мультфильм
Год выпуска: 1967-1984
Продолжительность: 02:09:00
Перевод: Не требуется

Режиссер:  Владимир Дахно
Роли озвучивали: Эдуард Назаров

Описание: «Казаки» — серия мультипликационных фильмов, снятых в СССР на украинской киностудии «Киевнаучфильм» режиссёром Владимиром Дахно.

Главными героями серии являются три запорожских казака: верзила, коротышка и силач (по сценарию носят имена Грай, Око и Тур соответственно, но в самом сериале всегда безымянны.
Верзила хитёр и рассудителен, Коротышка — бодр и воинственен (он таскает с собой огромную пушку-мортиру), Силач — застенчив и сентиментален.
Они попадают в невероятные приключения, встречаясь с людьми разных стран и эпох, даже с богами и инопланетянами. В мультфильмах отсутствуют диалоги и какой-либо текст,
за исключением иногда приводимого вступления «от автора» — действие происходит в виде интуитивно понятных сцен.

Кодек: х264
Качество: DVDRip-AVC
Видео: MPEG-4 AVC, 2650-3200 Кбит/с, 720х[email protected]х572, 23.976 fps
Аудио: АС3, 6 сh, 448 Кбит/с, АС3, 2 сh, 224 Кбит/с

Доп: Спасибо V-ad


[+] Список серий

Доп: Каждый мульт имеет своё разрешение и свои настройки кодирования...

1. "Как казаки кулеш варили", 1967 г., 10 мин.
Эпизод, рассказывающий о похищении Коротышки и других казаков бусурманами-работорговцами (крымскими татарами). Верзила и Силач с приключениями проникают в цитадель неприятеля — ханский город Кафу — и освобождают друзей. Эта серия отличается несколько более грубой прорисовкой, нежели последующие.

2. "Как казаки в футбол играли", 1970 г., 18 мин.
Одна из самых известных серий показывает, как казаки путешествуют по Европе на запад, попадая из эпохи в эпоху и обыгрывая в футбол противников с различным стилем игры: немецких рыцарей XIV века, французских мушкетеров XVII века (своих современников) и английских джентльменов XIX века.

3. "Как казаки невест выручали", 1973 г., 19 мин.
Серия о морских приключениях казаков, гоняющихся за пиратами, которые похитили казачек. Пираты — как и казаки — способны плавать на своём корабле из эпохи в эпоху. Погоня проходит через колоритные локации: Древнюю Грецию, Древний Египет, Индию, и заканчивается на острове пиратов.

4. "Как казаки соль покупали", 1975 г., 9 мин.
В этой серии казаки помогают чумакам довезти соль до базара, отбиваясь от степных разбойников под предводительством Злого Пана. Почти вся серия представляет собой энергичную погоню, в которой казаки уходят от разбойников.

5. "Как казаки олимпийцами стали", 1978 г., 18 мин.
События этой серии связаны с древнегреческой мифологией. Бог Зевс хочет остановить войны между греками и учреждает Олимпийские игры. Марс, бог войны, намерен сорвать их проведение. Но ему придется волей-неволей вступить в спортивное состязание с казаками, занявшими сторону олимпийцев.

6. "Как казаки мушкетёрам помогали", 1979 г., 18 мин.
Серия отсылает к роману Александра Дюма-ст. «Три мушкетёра»: казаки помогают французским мушкетёрам доставить портрет дочери турецкого султана голландскому принцу, чтобы тот мог на ней жениться. Принц (сын штатгальтера) — племянник Анны Австрийской, поэтому французский двор принимает в судьбе голландца самое деятельное участие. Коварный кардинал Ришелье хочет сорвать планы королевы и снаряжает погоню.

7. "Как казаки инопланетян встречали", 1983 г., 17 мин.
В этой серии казаки встречают инопланетян, карикатурно похожих на них самих (маленький, длинный и сильный). «Летающей тарелке» пришельцев для возвращения на родину требуется смазка. В поисках смазки казаки вместе с инопланетянами странствуют по Европе, защищают Болгарию от генуэзцев, изобретают водопровод в позднем (христианском) Риме и едва не попадают на костёр инквизиции в Испании.

8. "Как казаки на свадьбе гуляли", 1984 г., 19 мин.
Мистическая серия, рассказывающая о женитьбе Силача, отсылает к произведениям Гоголя. В поисках чоботов для своей возлюбленной казак попадает на шабаш к лесным чертям, которые хотят похитить его душу. Верные друзья хитроумно спасают казака.

P.S. Для справки: 9 выпуск "Как казаки в хоккей играли" был снят после распада СССР на студии «Укранимафильм». Вероятно из-за разногласий в правообладателях этот выпуск не вошел в данный сборник!  



[+] Инфо файл

x264 [info]: frame I:107   Avg QP:17.92  size: 79192
x264 [info]: frame P:3772  Avg QP:20.53  size: 36274
x264 [info]: frame B:10905 Avg QP:22.27  size:  8419

Общее
Уникальный идентификатор                 : 253065928264069920938773185638580643484 (0xBE62B994040DEAAD815511F6ED70669C)
Полное имя                               : I:Мульти-пультиКак казаки1 Как казаки кулеш варили 1967.mkv
Формат                                   : Matroska
Версия формата                           : Version 2
Размер файла                             : 274 Мбайт
Продолжительность                        : 9 м. 51 с.
Общий поток                              : 3881 Кбит/сек
Дата кодирования                         : UTC 2018-11-20 10:47:51
Программа кодирования                    : mkvmerge v5.8.0 ('No Sleep / Pillow') built on Sep  2 2012 15:37:04
Библиотека кодирования                   : libebml v1.2.3 + libmatroska v1.3.0

Видео
Идентификатор                            : 1
Формат                                   : AVC
Формат/Информация                        : Advanced Video Codec
Профиль формата                          : High@L4.1
Настройки формата                        : CABAC / 16 Ref Frames
Параметр CABAC формата                   : Да
Параметр RefFrames формата               : 16 кадров
Идентификатор кодека                     : V_MPEG4/ISO/AVC
Продолжительность                        : 9 м. 51 с.
Битрейт                                  : 3200 Кбит/сек
Ширина                                   : 720 пикселей
Высота                                   : 572 пикселя
Соотношение сторон                       : 4:3
Режим частоты кадров                     : Постоянный
Частота кадров                           : 25,000 кадров/сек
Цветовое пространство                    : YUV
Субдискретизация насыщенности            : 4:2:0
Битовая глубина                          : 8 бит
Тип развёртки                            : Прогрессивная
Бит/(Пиксели*Кадры)                      : 0.311
Размер потока                            : 221 Мбайт (81%)
Библиотека кодирования                   : x264 core 152 r2851kMod ba24899
Настройки программы                      : cabac=1 / ref=16 / deblock=1:-2:-2 / analyse=0x3:0x133 / me=umh / subme=11 / psy=1 / fade_compensate=0.00 / psy_rd=1.05:0.02 / mixed_ref=1 / me_range=48 / chroma_me=1 / trellis=2 / 8x8dct=1 / cqm=0 / deadzone=21,11 / fast_pskip=0 / chroma_qp_offset=-3 / threads=12 / lookahead_threads=3 / sliced_threads=0 / nr=0 / decimate=0 / interlaced=0 / bluray_compat=0 / constrained_intra=0 / bframes=12 / b_pyramid=2 / b_adapt=2 / b_bias=0 / direct=3 / weightb=1 / open_gop=0 / weightp=2 / keyint=250 / keyint_min=25 / scenecut=40 / intra_refresh=0 / rc_lookahead=40 / rc=2pass / mbtree=0 / bitrate=3200 / ratetol=1.0 / qcomp=0.60 / qpmin=0 / qpmax=39 / qpstep=4 / cplxblur=20.0 / qblur=0.5 / vbv_maxrate=50000 / vbv_bufsize=62500 / nal_hrd=none / filler=0 / ip_ratio=1.25 / pb_ratio=1.30 / aq=1:1.00
Язык                                     : English
Default                                  : Да
Forced                                   : Нет
Цветовой диапазон                        : Limited
Основные цвета                           : BT.601 PAL
Характеристики трансфера                 : BT.470 System B, BT.470 System G
Коэффициенты матрицы                     : BT.470 System B, BT.470 System G

Аудио #1
Идентификатор                            : 2
Формат                                   : AC-3
Формат/Информация                        : Audio Coding 3
Параметр Endianness формата              : Big
Идентификатор кодека                     : A_AC3
Продолжительность                        : 9 м. 51 с.
Вид битрейта                             : Постоянный
Битрейт                                  : 448 Кбит/сек
Каналы                                   : 6 каналов
Расположение каналов                     : Front: L C R, Side: L R, LFE
Частота                                  : 48,0 КГц
Частота кадров                           : 31,250 кадров/сек (1536 SPF)
Битовая глубина                          : 16 бит
Метод сжатия                             : С потерями
Размер потока                            : 31,6 Мбайт (12%)
Язык                                     : Russian
Default                                  : Да
Forced                                   : Нет

Аудио #2
Идентификатор                            : 3
Формат                                   : AC-3
Формат/Информация                        : Audio Coding 3
Параметр Endianness формата              : Big
Идентификатор кодека                     : A_AC3
Продолжительность                        : 9 м. 51 с.
Вид битрейта                             : Постоянный
Битрейт                                  : 224 Кбит/сек
Каналы                                   : 1 канал
Расположение каналов                     : Front: C
Частота                                  : 48,0 КГц
Частота кадров                           : 31,250 кадров/сек (1536 SPF)
Битовая глубина                          : 16 бит
Метод сжатия                             : С потерями
Размер потока                            : 15,8 Мбайт (6%)
Язык                                     : Russian
Default                                  : Нет
Forced                                   : Нет




Скриншоты:
[+] Всего файлов в раздаче - 8:
2 Как казаки в футбол играли 1970.mkv664.65 MB
3 Как казаки невест выручали 1973.mkv618.44 MB
7 Как казаки инопланетян встречали 1983.mkv445.00 MB
6 Как казаки мушкетерам помогали 1979.mkv422.40 MB
5 Как казаки олимпийцами стали 1978.mkv408.63 MB
8 Как казаки на свадьбе гуляли 1984.mkv399.21 MB
4 Как казаки соль покупали 1975.mkv340.29 MB
1 Как казаки кулеш варили 1967.mkv277.00 MB

Текущая раздача:
ДатаКомментарии    РазмерПиры
2018-11-23 U Казаки. Сборник мультфильмов (1967-1984) DVDRip-AVC от KORSAR 3.49 GB ↑ 78 ↓ 24

Показать еще раздачи по запросу казаки:
2018-08-05 U Казаки 3 / Cossacks 3 [v 2.2.2.92.5963 + 7 DLC] (2016) PC | Лицензия 3.70 GB ↑ 54 ↓ 24
2018-08-03 U Казаки 3 / Cossacks 3 [v 2.2.2.92.5963 + 7 DLC] (2016) PC | Repack от =nemos= 1.73 GB ↑ 103 ↓ 12
2018-07-01 U Казаки 3 / Cossacks 3: Digital Deluxe Edition [v 2.2.1.92.5962 + 7 DLC] (2016) PC | RePack от R.G. Catalyst 1.52 GB ↑ 308 ↓ 19
2018-06-30 U Казаки 3 / Cossacks 3: Digital Deluxe Edition [v 2.2.1.92.5962 + 7 DLC] (2016) PC | RePack от qoob 1.64 GB ↑ 38 ↓ 13
2018-06-26 U Казаки 3 / Cossacks 3 [v 2.2.1.92.5962 + 7 DLC] (2016) PC | RePack от xatab 1.75 GB ↑ 112 ↓ 25
2018-06-24 U Казаки 3 / Cossacks 3 [v 2.2.0.91.5961 + 7 DLC] (2016) PC | Repack от =nemos= 1.73 GB ↑ 90 ↓ 9
2018-06-10 U Казаки 3 / Cossacks 3 [v 2.1.4.90.5902 + 7 DLC] (2016) PC | RePack от R.G. Механики 1.47 GB ↑ 101 ↓ 28

Отзывы
Зарегистрируйтесь чтобы добавить комментарий.
Обратная связь
Copyleft ©