↑↓Torrent.by
Поиск
Логин: Регистрация
Пароль: Восстановить пароль
Загрузка...

Следствие вели... с Леонидом Каневским. «Я тебя люблю!» [25.11] (2018) WEBRip от GeneralFilm

Скачать sledstvie-veli-s-leonidom-kanevskim-ya-tebya-lyublyu-25-11-2018-webrip-ot-generalfilm.torrent
U Магнитная ссылка Размер: 585.35 MB Раздают: 47 Качают: 20 Добавлен: 2018-11-26 04:03:14
Следствие вели... с Леонидом Каневским. «Я тебя люблю!» [25.11] (2018) WEBRip от GeneralFilm

Оригинальное название: Следствие вели... с Леонидом Каневским
Год выпуска: 2018
Жанр:  Документальный, детектив, криминал, расследование, история
Выпущено: Россия, НТВ
Режиссер: Игорь Ромащенко, Борис Фёдоров
Ведущий: Леонид Каневский

О фильме: 1976 год. На одной из улиц Куйбышева происходит незначительное ДТП. Внезапно водитель и пассажиры одной из машин разбегаются в разные стороны. Выясняется, что автомобиль принадлежит пропавшему без вести ветерану войны. Никто не догадывается: это лишь начало цепочки драматических событий, в основе которых лежит неразделенная любовь.

Качество: WEBRip
Видео: XviD, 1793 Кбит/с, 720x400
Аудио: Русский (AC3, 2 ch, 192 Кбит/с)
Продолжительность: 00:41:01

Релиз:
[+] MediaInfo

Общее
Полное имя                               : D:Sledstvie.veli.(2018.11.25).WEBRip.GeneralFilm.avi
Формат                                   : AVI
Формат/Информация                        : Audio Video Interleave
Размер файла                             : 585 Мбайт
Продолжительность                        : 41 м. 1 с.
Общий поток                              : 1995 Кбит/сек
Программа кодирования                    : VirtualDubMod 1.5.10.3 | www.virtualdub-fr.org || (build 2550/release)
Библиотека кодирования                   : VirtualDubMod build 2550/release

Видео
Идентификатор                            : 0
Формат                                   : MPEG-4 Visual
Профиль формата                          : Advanced Simple@L5
Параметр BVOP формата                    : 1
Параметр QPel формата                    : Нет
Параметр GMC формата                     : Без точки перехода
Параметр матрицы формата                 : Выборочная
Идентификатор кодека                     : XVID
Идентификатор кодека/Подсказка           : XviD
Продолжительность                        : 41 м. 1 с.
Битрейт                                  : 1793 Кбит/сек
Ширина                                   : 720 пикселей
Высота                                   : 400 пикселей
Соотношение сторон                       : 16:9
Частота кадров                           : 25,000 кадров/сек
Цветовое пространство                    : YUV
Субдискретизация насыщенности            : 4:2:0
Битовая глубина                          : 8 бит
Тип развёртки                            : Прогрессивная
Метод сжатия                             : С потерями
Бит/(Пиксели*Кадры)                      : 0.249
Размер потока                            : 526 Мбайт (90%)
Библиотека кодирования                   : XviD 1.2.1 (UTC 2008-12-04)

Аудио
Идентификатор                            : 1
Формат                                   : AC-3
Формат/Информация                        : Audio Coding 3
Расширение режима                        : CM (complete main)
Параметр Endianness формата              : Big
Идентификатор кодека                     : 2000
Продолжительность                        : 41 м. 1 с.
Вид битрейта                             : Постоянный
Битрейт                                  : 192 Кбит/сек
Каналы                                   : 2 канала
Расположение каналов                     : Front: L R
Частота                                  : 48,0 КГц
Частота кадров                           : 31,250 кадров/сек (1536 spf)
Битовая глубина                          : 16 бит
Метод сжатия                             : С потерями
Размер потока                            : 56,3 Мбайт (10%)
Выравнивание                             : Разделение по промежуткам
Продолжительность промежутка             : 40  мс. (1,00 видеокадр)
Время предзагрузки промежутка            : 500  мс.




Скриншоты:
[+] Всего файлов в раздаче - 1:
Sledstvie.veli.(2018.11.25).WEBRip.GeneralFilm.avi585.35 MB

Показать еще раздачи по запросу следствие:
2019-02-18 U Следствие вели... с Леонидом Каневским. Возвращение Фантомасов [эфир от 17.02] (2019) WEBRip 1080p от ExKinoRay 1.80 GB ↑ 54 ↓ 9
2019-02-12 U Следствие вели... с Леонидом Каневским. Опасная игра [эфир от 10.02] (2019) WEBRip 1080p от ExKinoRay 1.75 GB ↑ 51 ↓ 8
2019-02-04 U Следствие вели... с Леонидом Каневским. Женщина в красном [03.02] (2019) WEBRip от GeneralFilm 1К587.67 MB ↑ 21 ↓ 10
2018-12-24 U Следствие вели... с Леонидом Каневским. Борода из ваты [эфир от 23.12] (2018) WEBRip 1080p от ExKinoRay 1.77 GB ↑ 110 ↓ 5
2018-12-17 U Следствие вели... с Леонидом Каневским. С меня хватит! [эфир от 16.12] (2018) WEBRip 1080p от MediaClub 1.77 GB ↑ 39 ↓ 10
2018-12-17 U Следствие вели... с Леонидом Каневским. С меня хватит! [16.12] (2018) WEBRip от GeneralFilm 585.02 MB ↑ 63 ↓ 6
2018-12-10 U Следствие вели... с Леонидом Каневским. Я видела дьявола [09.12] (2018) WEBRip от GeneralFilm 583.30 MB ↑ 106 ↓ 14

Отзывы
Зарегистрируйтесь чтобы добавить комментарий.
Обратная связь
Copyleft ©