↑↓Torrent.by
Поиск
Логин: Регистрация
Пароль: Восстановить пароль
Загрузка...

Медное солнце [01-02 из 02] (2018) WEBRip от GeneralFilm

Скачать mednoe-solnce-01-02-iz-2018-webrip-ot-generalfilm.torrent
U Магнитная ссылка Размер: 3.09 GB Раздают: 215 Качают: 118 Добавлен: 2018-11-28 06:50:29
Медное солнце [01-02 из 02] (2018) WEBRip от GeneralFilm

Оригинальное название: Медное солнце
Год выпуска: 2018
Жанр:  Драма, военный
Режиссер: Карен Оганесян
В ролях: Владимир Машков, Микаэл Джанибекян, Ольга Медынич, Алексей Шевченков, Максим Емельянов, Сабина Ахмедова, Зарина Мухитдинова, Олег Галахов, Владимир Нисков

О фильме: 1991-й год. Некогда единый и могучий Советский Союз раскалывается изнутри. Жители удалённого кишлака в Средней Азии с тревогой узнают новости о волнениях, прокатывающихся по стране. Но ведь здесь местные давно живут бок о бок с русскими. Герои нашей истории — музыканты полкового оркестра, отработавшие на свадьбе в дальнем ауле и вернувшиеся в часть к пустым баракам. Полк получил срочный приказ о передислокации и ушёл. В это время в горах появился отряд боевиков, перешедших границу для того, чтобы начать в стране гражданскую войну. И вместо того, чтобы догонять полк, музыканты, половина из которых ещё совсем мальчишки, остаются для защиты мира в посёлке. Это история про проверку на человечность, силу духа, умение устоять против волны ненависти и гнева, про любовь и, конечно, про музыку, которая побеждает там, где автоматы и танки бессильны.

Страна: Россия
Студия: МАРС Медиа, КАРГО по заказу телеканала НТВ
Продолжительность: 2 x ~ 02:17:00
Перевод: Не требуется
Субтитры: нет

Файл
Формат: avi
Качество: WEBRip
Видео: XviD build 73, 720x304 (2.35:1), 25.000 fps, 1500 Kbps (0.275 bit/pixel)
Звук: 48.0 kHz, AC3, 2/0 ch, 192 kbps

Релиз:


[+] MediaInfo
General
Complete name               : D:RazdachiMednoe.Solnce.2018.XviD.WEBRip.GeneralFilmMednoe.Solnce.e01.avi
Format                      : AVI
Format/Info                 : Audio Video Interleave
File size                   : 1.63 GiB
Duration                    : 2 h 16 min
Overall bit rate            : 1 708 kb/s
Writing application         : VirtualDubMod 1.5.10.3 | www.virtualdub-fr.org || (build 2550/release)
Writing library             : VirtualDubMod build 2550/release

Video
ID                          : 0
Format                      : MPEG-4 Visual
Format profile              : Advanced Simple@L5
Format settings, BVOP       : 1
Format settings, QPel       : No
Format settings, GMC        : No warppoints
Format settings, Matrix     : Custom
Codec ID                    : XVID
Codec ID/Hint               : XviD
Duration                    : 2 h 16 min
Bit rate                    : 1 506 kb/s
Width                       : 720 pixels
Height                      : 304 pixels
Display aspect ratio        : 2.35:1
Frame rate                  : 25.000 FPS
Color space                 : YUV
Chroma subsampling          : 4:2:0
Bit depth                   : 8 bits
Scan type                   : Progressive
Compression mode            : Lossy
Bits/(Pixel*Frame)          : 0.275
Stream size                 : 1.44 GiB (88%)
Writing library             : XviD 73

Audio
ID                          : 1
Format                      : AC-3
Format/Info                 : Audio Coding 3
Format settings, Endianness : Big
Codec ID                    : 2000
Duration                    : 2 h 16 min
Bit rate mode               : Constant
Bit rate                    : 192 kb/s
Channel(s)                  : 2 channels
Channel positions           : Front: L R
Sampling rate               : 48.0 kHz
Frame rate                  : 31.250 FPS (1536 SPF)
Bit depth                   : 16 bits
Compression mode            : Lossy
Stream size                 : 188 MiB (11%)
Alignment                   : Split accross interleaves
Interleave, duration        : 40  ms (1.00 video frame)
Interleave, preload duratio : 500  ms
Service kind                : Complete Main



Скриншоты:
[+] Всего файлов в раздаче - 2:
Mednoe.Solnce.e01.avi1.63 GB
Mednoe.Solnce.e02.avi1.46 GB

Показать еще раздачи по запросу медное:
2018-11-29 U Медное солнце [01-02 из 02] (2018) WEBRip-AVC от Files-x 3.98 GB ↑ 125 ↓ 75
2018-11-28 U Медное солнце [01-02 из 02] (2018) WEBRip-AVC от Files-x 3.98 GB ↑ 196 ↓ 115
2018-11-28 U Медное солнце [01-02 из 02] (2018) WEBRip 1080p от MediaClub 11.20 GB ↑ 133 ↓ 119
2018-11-28 U Медное солнце [01-02 из 02] (2018) WEBRip от Files-x 3.09 GB ↑ 208 ↓ 81
2018-11-28 U Медное солнце [01-02 из 02] (2018) SATRip 3.35 GB ↑ 556 ↓ 361
2018-11-27 U Медное солнце [01 из 02] (2018) WEBRip-AVC от Files-x 2.10 GB ↑ 127 ↓ 37
2018-11-27 U Медное солнце [01 из 02] (2018) WEBRip от Files-x 1.63 GB ↑ 70 ↓ 22

Отзывы
Зарегистрируйтесь чтобы добавить комментарий.
Обратная связь
Copyleft ©