↑↓Torrent.by
Поиск
Логин: Регистрация
Пароль: Восстановить пароль
Загрузка...

Парень из Голливуда, или Необыкновенные приключения Вени Везунчика (2018) WEB-DL 1080p | iTunes

Скачать paren-iz-gollivuda-ili-neobyknovennye-priklyucheniya-veni-vezunchika-2018-web-dl-1080p-itunes.torrent
U Магнитная ссылка Размер: 3.50 GB Раздают: 298 Качают: 100 Добавлен: 2018-11-29 06:43:03
Парень из Голливуда, или Необыкновенные приключения Вени Везунчика (2018) WEB-DL 1080p | iTunes

«Никто не застрахован от успеха!»

Название: Парень из Голливуда, или Необыкновенные приключения Вени Везунчика
Год выпуска: 2018
Жанр:  Комедия, приключения, семейный
Режиссёр: Роман Светлов
В ролях: Роман Светлов, Станислав Дужников, Ольга Калашникова, Игорь Гузун, Игорь Гаспарян, Денис Матросов, Екатерина Вуличенко, Анатолий Белый, Екатерина Волкова, Артем Манукян

Описание:
На криминального босса по кличке Антиквар объявлена «охота» со стороны иностранных кредиторов из Италии, Японии, Америки. Охрана принимает решение найти двойника для своего шефа и публично подставить его под удар. Выбор падает на молодого артиста Веню Везунчика. Везунчику делается предложение «сняться в Голливудском блокбастере». Казалось, все идет по намеченному плану. Но кто бы мог подумать, в какие нелепые, порой трагикомические, ситуации могут попасть представители криминального мира, положившись на эксцентричного артиста, которому везет даже в самых безвыходных ситуациях.

Страна: Россия
Студия: RFILMSTUDIO
Продолжительность: 01:35:33
Язык: Русский

Файл
Формат: MKV
Качество: WEB-DL 1080p
Видео: 1920x804 (2,40:1), 25 fps, MPEG-4 AVC ~ 4862 kbps avg, 0.126 bit/pixel
Звук: AC3, 48 kHz, 6 ch, ~384.00 kbps avg | русский | iTunes

Субтитры: Отсутствуют


[+] Инфо-файл
Общее
Уникальный идентификатор                 : 104316474771753031085854431276896775277 (0x4E7A9F4B7C8F214BA104C24C7AFE6C6D)
Полное имя                               : PAREN_HOLLYWOOD (2018) WEB-DL 1080p.mkv
Формат                                   : Matroska
Версия формата                           : Version 4 / Version 2
Размер файла                             : 3,50 Гбайт
Продолжительность                        : 1 ч. 35 м.
Общий поток                              : 5248 Кбит/сек
Название фильма                          : PAREN_HOLLYWOOD (2018) WEB-DL 1080p
Дата кодирования                         : UTC 2018-11-29 00:09:22
Программа кодирования                    : mkvmerge v27.0.0 ('Metropolis') 64-bit
Библиотека кодирования                   : libebml v1.3.6 + libmatroska v1.4.9

Видео
Идентификатор                            : 1
Формат                                   : AVC
Формат/Информация                        : Advanced Video Codec
Профиль формата                          : High@L4
Настройки формата                        : CABAC / 5 Ref Frames
Параметр CABAC формата                   : Да
Параметр RefFrames формата               : 5 кадров
Идентификатор кодека                     : V_MPEG4/ISO/AVC
Продолжительность                        : 1 ч. 35 м.
Битрейт                                  : 4862 Кбит/сек
Ширина                                   : 1920 пикселей
Высота                                   : 804 пикселя
Соотношение сторон                       : 2,40:1
Режим частоты кадров                     : Постоянный
Частота кадров                           : 25,000 кадров/сек
Цветовое пространство                    : YUV
Субдискретизация насыщенности            : 4:2:0
Битовая глубина                          : 8 бит
Тип развёртки                            : Прогрессивная
Бит/(Пиксели*Кадры)                      : 0.126
Размер потока                            : 3,25 Гбайт (93%)
Заголовок                                : PAREN_HOLLYWOOD (2018) WEB-DL 1080p
Язык                                     : English
Default                                  : Да
Forced                                   : Нет
Цветовой диапазон                        : Limited
Основные цвета                           : BT.709
Характеристики трансфера                 : BT.709
Коэффициенты матрицы                     : BT.709

Аудио
Идентификатор                            : 2
Формат                                   : AC-3
Формат/Информация                        : Audio Coding 3
Идентификатор кодека                     : A_AC3
Продолжительность                        : 1 ч. 35 м.
Вид битрейта                             : Постоянный
Битрейт                                  : 384 Кбит/сек
Каналы                                   : 6 каналов
Расположение каналов                     : Front: L C R, Side: L R, LFE
Частота                                  : 48,0 КГц
Частота кадров                           : 31,250 кадров/сек (1536 SPF)
Битовая глубина                          : 16 бит
Метод сжатия                             : С потерями
Размер потока                            : 262 Мбайт (7%)
Заголовок                                : iTunes | PAREN_HOLLYWOOD (2018) WEB-DL 1080p
Язык                                     : Russian
Default                                  : Да
Forced                                   : Да

Меню
00:00:00.000                             : en:Глава 1
00:07:32.200                             : en:Глава 2
00:14:30.800                             : en:Глава 3
00:19:33.240                             : en:Глава 4
00:30:30.640                             : en:Глава 5
00:37:45.800                             : en:Глава 6
00:43:06.440                             : en:Глава 7
00:53:06.800                             : en:Глава 8
01:03:27.480                             : en:Глава 9
01:12:01.760                             : en:Глава 10
01:17:16.320                             : en:Глава 11
01:23:51.560                             : en:Глава 12
01:30:45.960                             : en:Глава 13




Скриншоты:
[+] Всего файлов в раздаче - 1:
PAREN_HOLLYWOOD (2018) WEB-DL 1080p.mkv3.50 GB

Текущая раздача:
ДатаКомментарии    РазмерПиры
2018-11-29 U Парень из Голливуда, или Необыкновенные приключения Вени Везунчика (2018) WEB-DL 1080p | iTunes 3.50 GB ↑ 298 ↓ 100

Показать еще раздачи по запросу парень:
Сегодня U Белый парень Рик / White Boy Rick (2018) HDRip от ExKinoRay | UKR, Sub 1.46 GB ↑ 88 ↓ 43
Вчера U Парень. Девушка. Мечта / A Boy. A Girl. A Dream. (2018) WEB-DLRip-AVC от OlLanDGroup | HDRezka Studio 1.40 GB ↑ 101 ↓ 40
2018-11-30 U Парень из Голливуда, или Необыкновенные приключения Вени Везунчика (2018) WEB-DLRip-AVC | iTunes 1.94 GB ↑ 161 ↓ 28
2018-11-30 U Парень из Голливуда, или Необыкновенные приключения Вени Везунчика (2018) WEB-DLRip от OlLanDGroup | iTunes 745.29 MB ↑ 104 ↓ 20
2018-11-29 U Парень из Голливуда, или Необыкновенные приключения Вени Везунчика (2018) WEB-DLRip-AVC 741.95 MB ↑ 73 ↓ 32
2018-11-29 U Парень из Голливуда, или Необыкновенные приключения Вени Везунчика (2018) WEB-DLRip | iTunes 1К1.37 GB ↑ 305 ↓ 124
2018-06-26 U Первый парень на деревне [01-04 из 04] (2017) HDTVRip от Generalfilm | КПК 780.37 MB ↑ 99 ↓ 15

Отзывы
Зарегистрируйтесь чтобы добавить комментарий.
Обратная связь
Copyleft ©