↑↓Torrent.by
Поиск
Логин: Регистрация
Пароль: Восстановить пароль
Загрузка...

Колдовское озеро [01-02 из 02] (2018) WEB-DLRip от GeneralFilm

Скачать koldovskoe-ozero-01-02-iz-2018-web-dlrip-ot-generalfilm.torrent
U Магнитная ссылка Размер: 1.09 GB Раздают: 161 Качают: 106 Добавлен: 2018-11-30 17:23:25
Колдовское озеро [01-02 из 02] (2018) WEB-DLRip от GeneralFilm

Оригинальное название: Колдовское озеро
Год выпуска: 2018
Жанр:  детектив
Режиссер: Владимир Янковский
В ролях: Анна Банщикова, Юрий Батурин, Сергей Чекерес, Андрей Карако, Лариса Маршалова, Дмитрий Пустильник, Оксана Лесная, Виктор Васильев (II), Станислав Савостин

О фильме:
В 17 лет Вика упала в заколдованное озеро, и теперь по местному поверью всю жизнь будет несчастна в любви. Она поставила крест на личной жизни и посвятила себя работе в мэрии, ведь проблем у родного города хватает. К власти рвется беспринципный богач Kрымов, в городе появляется загадочный француз Беранже, а тут еще и Викиного шефа убивают у нее на глазах... Искать убийц мэра приезжает следователь Сергей Леонтьев – Викин одноклассник и первая любовь. Вместе они пытаются распутать это странное дело, в котором тесно переплелись политика, мистика и жажда наживы...

Страна: Россия
Студия: Телекомпания «Марс Медиа»
Продолжительность: 2 x ~ 00:47:00
Перевод: Не требуется
Субтитры: нет

Файл
Формат: avi
Качество: WEB-DLRip
Видео: XviD build 73, 720x400 (16:9), 25.000 fps, ~ 1450 Kbps (~ 0.200 bit/pixel)
Звук: 48.0 kHz, AC3, 2/0 ch, 192 kbps

Релиз:


[+] MediaInfo
General
Complete name               : D:RazdachiKoldovskoe.Ozero.2018.XviD.WEB-DLRip.GeneralFilmKoldovskoe.Ozero.e01.avi
Format                      : AVI
Format/Info                 : Audio Video Interleave
File size                   : 557 MiB
Duration                    : 46 min 42 s
Overall bit rate            : 1 668 kb/s
Writing application         : VirtualDubMod 1.5.10.3 | www.virtualdub-fr.org || (build 2550/release)
Writing library             : VirtualDubMod build 2550/release

Video
ID                          : 0
Format                      : MPEG-4 Visual
Format profile              : Advanced Simple@L5
Format settings, BVOP       : 1
Format settings, QPel       : No
Format settings, GMC        : No warppoints
Format settings, Matrix     : Custom
Codec ID                    : XVID
Codec ID/Hint               : XviD
Duration                    : 46 min 42 s
Bit rate                    : 1 466 kb/s
Width                       : 720 pixels
Height                      : 400 pixels
Display aspect ratio        : 16:9
Frame rate                  : 25.000 FPS
Color space                 : YUV
Chroma subsampling          : 4:2:0
Bit depth                   : 8 bits
Scan type                   : Progressive
Compression mode            : Lossy
Bits/(Pixel*Frame)          : 0.204
Stream size                 : 490 MiB (88%)
Writing library             : XviD 73

Audio
ID                          : 1
Format                      : AC-3
Format/Info                 : Audio Coding 3
Format settings, Endianness : Big
Codec ID                    : 2000
Duration                    : 46 min 42 s
Bit rate mode               : Constant
Bit rate                    : 192 kb/s
Channel(s)                  : 2 channels
Channel positions           : Front: L R
Sampling rate               : 48.0 kHz
Frame rate                  : 31.250 FPS (1536 SPF)
Bit depth                   : 16 bits
Compression mode            : Lossy
Stream size                 : 64.1 MiB (12%)
Alignment                   : Split accross interleaves
Interleave, duration        : 40  ms (1.00 video frame)
Interleave, preload duratio : 500  ms
Service kind                : Complete Main



Скриншоты:
[+] Всего файлов в раздаче - 2:
Koldovskoe.Ozero.e01.avi557.06 MB
Koldovskoe.Ozero.e02.avi557.17 MB

Текущая раздача:
ДатаКомментарии    РазмерПиры
2018-11-30 U Колдовское озеро [01-02 из 02] (2018) WEB-DLRip от GeneralFilm 1.09 GB ↑ 161 ↓ 106

Похожие раздачи по запросу - колдовское:
2018-12-01 U Колдовское озеро [01-02 из 02] (2018) WEB-DLRip-AVC от Files-x 1.18 GB ↑ 155 ↓ 26
2018-11-30 U Колдовское озеро [01-02 из 02] (2018) WEB-DLRip 1.22 GB ↑ 217 ↓ 70

Отзывы
Зарегистрируйтесь чтобы добавить комментарий.
Обратная связь
Copyleft ©