↑↓Torrent.by
Поиск
Логин: Регистрация
Пароль: Восстановить пароль
Загрузка...

Вечная жизнь Александра Христофорова (2018) WEB-DLRip от Generalfilm

Скачать vechnaya-zhizn-aleksandra-hristoforova-2018-web-dlrip-ot-generalfilm.torrent
U Магнитная ссылка Размер: 746.57 MB Раздают: 339 Качают: 64 Добавлен: 2018-12-02 08:47:30
Вечная жизнь Александра Христофорова (2018) WEB-DLRip от Generalfilm

Название: Вечная жизнь Александра Христофорова
Год выпуска: 2018
Жанр: Комедия
Режиссер: Евгений Шелякин
В ролях: Алексей Гуськов, Оксана Фандера, Роман Курцын, Лидия Вележева, Полина Пушкарук, Станислав Любшин

О фильме:
В прошлом Христофоров был звездой театра и кино, теперь он массовик в курортном городке. Но бывший актер не отчаивается, живет здесь и сейчас. И пусть бывшая жена строит козни, а сын его избегает, Христофоров упорно двигается дальше. После скандального увольнения фортуна делает герою сказочный подарок в виде любимой женщины. Поможет ли встреча изменить жизнь вечного неудачника?

Страна: Россия
Студия: «58,5 ПРОДАКШН»
Продолжительность: 01:44:34
Перевод: Не требуется
Субтитры: нет

Файл
Формат: avi
Качество: WEB-DLRip
Видео: XviD build 73, 688x288 (2.40:1), 24.000 fps, 861 Kbps (0.181 bit/pixel)
Звук: 48.0 kHz, MP3, 2/0 ch, 128 kbps

Релиз:


[+] MediaInfo
General
Complete name               : D:RazdachiVechnaja.Zhiznj.A.Hristoforova.2018.XviD.WEB-DLRip.GeneralFilm.avi
Format                      : AVI
Format/Info                 : Audio Video Interleave
File size                   : 747 MiB
Duration                    : 1 h 44 min
Overall bit rate            : 998 kb/s
Writing application         : VirtualDubMod 1.5.10.3 | www.virtualdub-fr.org || (build 2550/release)
Writing library             : VirtualDubMod build 2550/release

Video
ID                          : 0
Format                      : MPEG-4 Visual
Format profile              : Advanced Simple@L5
Format settings, BVOP       : 1
Format settings, QPel       : No
Format settings, GMC        : No warppoints
Format settings, Matrix     : Custom
Codec ID                    : XVID
Codec ID/Hint               : XviD
Duration                    : 1 h 44 min
Bit rate                    : 861 kb/s
Width                       : 688 pixels
Height                      : 288 pixels
Display aspect ratio        : 2.40:1
Frame rate                  : 24.000 FPS
Color space                 : YUV
Chroma subsampling          : 4:2:0
Bit depth                   : 8 bits
Scan type                   : Progressive
Compression mode            : Lossy
Bits/(Pixel*Frame)          : 0.181
Stream size                 : 644 MiB (86%)
Writing library             : XviD 73

Audio
ID                          : 1
Format                      : MPEG Audio
Format version              : Version 1
Format profile              : Layer 3
Codec ID                    : 55
Codec ID/Hint               : MP3
Duration                    : 1 h 44 min
Bit rate mode               : Constant
Bit rate                    : 128 kb/s
Channel(s)                  : 2 channels
Sampling rate               : 48.0 kHz
Compression mode            : Lossy
Stream size                 : 95.7 MiB (13%)
Alignment                   : Aligned on interleaves
Interleave, duration        : 42  ms (1.00 video frame)
Interleave, preload duratio : 504  ms
Writing library             : LAME3.99r
Encoding settings           : -m s -V 4 -q 2 -lowpass 17 -b 128



Скриншоты:
[+] Всего файлов в раздаче - 1:
Vechnaja.Zhiznj.A.Hristoforova.2018.XviD.WEB-DLRip.GeneralFilm.avi746.57 MB

Показать еще раздачи по запросу вечная:
2018-12-13 U Наука: Не факт! Вечная жизнь (2018) HDTVRip 353.59 MB ↑ 63 ↓ 8
2018-12-09 U Вечная жизнь Александра Христофорова (2018) WEB-DL 1080p | iTunes 3.70 GB ↑ 344 ↓ 63
2018-12-06 U Вечная жизнь Александра Христофорова (2018) WEB-DLRip-AVC | iTunes 2.15 GB ↑ 207 ↓ 12
2018-12-02 U Вечная жизнь Александра Христофорова (2018) WEB-DLRip от MegaPeer 1.46 GB ↑ 1043 ↓ 311
2015-12-15 U Вечная жизнь / Das ewige Leben (2015) BDRip 1080p | L1 4К5.18 GB ↑ 84 ↓ 19
2015-12-08 U Вечная жизнь / Das ewige Leben (2015) BDRip | L1 1К1.70 GB ↑ 334 ↓ 177
2013-12-09 U Вечная сказка (2013) HDTVRip от Files-x 1.36 GB ↑ 538 ↓ 276

Отзывы
Зарегистрируйтесь чтобы добавить комментарий.
Обратная связь
Copyleft ©